S.P.L. Звезды судьбы 2 / Saat po long 2 (Поу-Сои Чинг / Pou-Soi Cheang) [2015, Китай, Гонконг, боевик, драма, криминал, HDRip] DVO (DeadSno&den904)

Ответить на тему
 
Автор Сообщение

user ®

Стаж: 13 лет

Сообщений: 15071

Пост Пост: #1 от 11-Янв-2016 02:39

[Цитировать]

S.P.L. Звезды судьбы 2 / Saat po long 2
Страна: Китай, Гонконг
Жанр: боевик, драма, криминал
Год выпуска: 2015
Продолжительность: 01:59:21-Перевод: Любительский (двухголосный закадровый) DeadSno & den904
Cубтитры: нет
Оригинальная аудиодорожка: нет-Режиссер: Поу-Сои Чинг / Pou-Soi Cheang-В ролях: Тони Джа, Ву Джин, Саймон Ям, Цзинь Чжан, Луис Ку, Кен Ло, Джан Кунг, Dominic Lam, Babyjohn Choi, Филип Кеунг...-Описание: Крутой гонконгский полицейский по имени Кит загоняет в угол крупного гангстера, но тот поворачивает все в свою сторону — главный свидетель Кита исчез. Более того, Кита отправляют в тайскую тюрьму, снабдив фальшивым списком преступлений. Тюремный охранник Чай следит за тем, чтобы Кит не сбежал — дочь Чая страдает от редкой формы лейкемии, и только Кит может стать для нее подходящим донором. В конце концов Чай узнает, кто такой Кит на самом деле и помогает ему сбежать в обмен на согласие стать донором для его дочери. Вместе Кит и Чай бросят вызов гангстеру и его приспешникам.-Сэмпл: http://sendfile.su/1191970-Качество видео: HDRip
Качество: HDRip (исходник неизвестен)
Формат видео: AVI
Видео: 720x304 (2.37:1), 24.000 fps, XviD build 50 ~1555 kbps avg, 0.30 bit/pixel
Аудио: 48 kHz, AC3 Dolby Digital, 2/0 (L,R) ch, ~192 kbps



MediaInfo
Формат : AVI
Формат/Информация : Audio Video Interleave
Размер файла : 1,46 Гбайт
Продолжительность : 1 ч. 59 м.
Общий поток : 1757 Кбит/сек
Программа кодирования : VirtualDubMod 1.5.10.3 | www.virtualdub-fr.org || (build 2550/release)
Библиотека кодирования : VirtualDubMod build 2550/release
Видео
Идентификатор : 0
Формат : MPEG-4 Visual
Профиль формата : Advanced Simple@L5
Параметр BVOP формата : 1
Параметр QPel формата : Нет
Параметр GMC формата : Без точки перехода
Параметр матрицы формата : Default (MPEG)
Идентификатор кодека : XVID
Идентификатор кодека/Подсказка : XviD
Продолжительность : 1 ч. 59 м.
Битрейт : 1555 Кбит/сек
Ширина : 720 пикселей
Высота : 304 пикселя
Соотношение сторон : 2,35:1
Частота кадров : 24,000 кадра/сек
Цветовое пространство : YUV
Субдискретизация насыщенности : 4:2:0
Битовая глубина : 8 бит
Тип развёртки : Прогрессивная
Метод сжатия : С потерями
Бит/(Пиксели*Кадры) : 0.296
Размер потока : 1,30 Гбайт (89%)
Библиотека кодирования : XviD 1.2.1 (UTC 2008-12-04)
Аудио
Идентификатор : 1
Формат : AC-3
Формат/Информация : Audio Coding 3
Расширение режима : CM (complete main)
Параметр Endianness формата : Big
Идентификатор кодека : 2000
Продолжительность : 1 ч. 59 м.
Вид битрейта : Постоянный
Битрейт : 192 Кбит/сек
Каналы : 2 канала
Расположение каналов : Front: L R
Частота : 48,0 КГц
Частота кадров : 31,250 кадров/сек (1536 spf)
Метод сжатия : С потерями
Размер потока : 164 Мбайт (11%)
Выравнивание : Разделение по промежуткам
Продолжительность промежутка : 42 мс. (1,00 видеокадр)
Время предзагрузки промежутка : 500 мс.
Скриншот c названием фильма Скриншоты
Скачать

Скачать торрент! S.P.L. Звезды судьбы 2 / Saat po long 2 (Поу-Сои Чинг / Pou-Soi Cheang) [2015, Китай, Гонконг, боевик, драма, криминал, HDRip] DVO (DeadSno&den904)

Как скачивать? · Что такое торрент? · Рейтинг и ограничения

Сайт не распространяет и не хранит электронные версии произведений, а лишь предоставляет доступ к создаваемому пользователями каталогу ссылок на торрент-файлы, которые содержат только списки хеш-сумм

[Профиль] [ЛС]
Показать сообщения:    
Ответить на тему

Текущее время: Сегодня 20:45

Часовой пояс: GMT + 4



Вы не можете начинать темы
Вы не можете отвечать на сообщения
Вы не можете редактировать свои сообщения
Вы не можете удалять свои сообщения
Вы не можете голосовать в опросах
Вы не можете прикреплять файлы к сообщениям
Вы не можете скачивать файлы