Жених без невесты / Мисс Танакпур присутствует / Miss Tanakpur Haazir Ho (Винод Капри / Vinod Kapri) [2015, Индия, комедия, HDRip] MVO (SDI Media)

Ответить на тему
 
Автор Сообщение

user ®

Стаж: 12 лет

Сообщений: 15092

Пост Пост: #1 от 11-Янв-2016 02:39

[Цитировать]

Жених без невесты / Miss Tanakpur Haazir Ho
Страна: Индия
Жанр: Драма, мелодрама
Год выпуска: 2015
Продолжительность: 02:08:59-Перевод: Профессиональный (многоголосый закадровый) - SDI Media
Cубтитры: Нет-Режиссер: Винод Капри / Vinod Kapri-В ролях: Рахул Багга, Ришита Бхатт, Анну Капур, Санджай Мишра, Ом Пури-Описание: В Харьяне, что на севере Индии, местное начальство в целом имеет неограниченную власть. Глава Танакпура, деревни из Харьяна, Суалал Гандас ничем не отличается от остальных прадханов и правит своей деревней, используя власть, возложенную на него главой района. В его ведении не только традиционный суд: когда надо, Сулал способен манипулировать полицией и органами системы наказаний. Кстати, у жестокого Сулала есть нежная, мечтательная жена Майя. Майя намного моложе своего мужа и, как назло, влюблена в Арджуна, человека близкого по возрасту и по сердцу. Сатира обостряется, когда Суалал и его влиятельные друзья, чтобы отомстить Арджуну, публично обвиняют его в изнасиловании мисс Танакпур.- | --Качество видео: HDRip
Формат видео: AVI-Видео: 720x304 (2.37:1), 25 fps, XviD build 50 ~1479 kbps avg, 0.27 bit/pixel
Аудио: 48 kHz, MPEG Layer 3, 2 ch, ~128.00 kbps
-
Сэмпл-Релиз:
Риппер, синхрон. звука: soso4eg- Скриншот с названием
-
Скриншоты
-
MI
Complete name : H:\[Релизы]\Miss.Tanakpur.Haazir.Ho.2015.P.HDRip.XviD.BwTorrents-soso4eg.avi
Format : AVI
Format/Info : Audio Video Interleave
File size : 1.46 GiB
Duration : 2h 8mn
Overall bit rate : 1 618 Kbps
Writing application : VirtualDubMod 1.5.10.2 (build 2540/release)
Video
ID : 0
Format : MPEG-4 Visual
Format profile : Advanced Simple@L5
Format settings, BVOP : 2
Format settings, QPel : No
Format settings, GMC : No warppoints
Format settings, Matrix : Default (H.263)
Codec ID : XVID
Codec ID/Hint : XviD
Duration : 2h 8mn
Bit rate : 1 480 Kbps
Width : 720 pixels
Height : 304 pixels
Display aspect ratio : 2.35:1
Frame rate : 25.000 fps
Color space : YUV
Chroma subsampling : 4:2:0
Bit depth : 8 bits
Scan type : Progressive
Compression mode : Lossy
Bits/(Pixel*Frame) : 0.270
Stream size : 1.33 GiB (91%)
Writing library : XviD 1.2.1 (UTC 2008-12-04)
Audio
ID : 1
Format : MPEG Audio
Format version : Version 1
Format profile : Layer 3
Mode : Joint stereo
Mode extension : MS Stereo
Codec ID : 55
Codec ID/Hint : MP3
Duration : 2h 8mn
Bit rate mode : Constant
Bit rate : 128 Kbps
Channel count : 2 channels
Sampling rate : 48.0 KHz
Compression mode : Lossy
Stream size : 118 MiB (8%)
Alignment : Aligned on interleaves
Interleave, duration : 40 ms (1.00 video frame)
Interleave, preload duration : 504 ms
Скачать

Скачать торрент! Жених без невесты / Мисс Танакпур присутствует / Miss Tanakpur Haazir Ho (Винод Капри / Vinod Kapri) [2015, Индия, комедия, HDRip] MVO (SDI Media)

Как скачивать? · Что такое торрент? · Рейтинг и ограничения

Сайт не распространяет и не хранит электронные версии произведений, а лишь предоставляет доступ к создаваемому пользователями каталогу ссылок на торрент-файлы, которые содержат только списки хеш-сумм

[Профиль] [ЛС]
Показать сообщения:    
Ответить на тему

Текущее время: Сегодня 17:51

Часовой пояс: GMT + 4



Вы не можете начинать темы
Вы не можете отвечать на сообщения
Вы не можете редактировать свои сообщения
Вы не можете удалять свои сообщения
Вы не можете голосовать в опросах
Вы не можете прикреплять файлы к сообщениям
Вы не можете скачивать файлы