Вьюга (Роман Просвирнин) [2013, Россия, семейный, HDTV 1080i] + Original Rus

Ответить на тему
 
Автор Сообщение

user ®

Стаж: 7 лет 7 месяцев

Сообщений: 20008

Пост Пост: #1 от 10-Янв-2016 23:33

[Цитировать]

Вьюга
Страна: Россия
Студия: Кинокомпания Русское
Жанр: семейный
Год выпуска: 2013
Продолжительность: 01:27:57
Перевод: Не требуется
Cубтитры: нет
Оригинальная аудиодорожка: русский
Режиссер: Роман Просвирнин
В ролях: Анна Леванова, Илья Шляга, Александр Наумов, Леонид Громов, Ирина Чериченко, Александр Стефанцов, Елена Оболенская, Ольга Кирсанова, Александр Комиссаров, Константин Карасик, Валерия Гладилина
Описание: Студентка Маша гостит у отца, в небольшом посёлке вблизи железнодорожной станции Дальнее. В канун нового года, несмотря на разыгравшуюся вьюгу, девушка собирается ехать в Москву к своему жениху Сергею. Но отец категорически отказывается отпускать дочь.
А в поезде «Новосибирск — Москва» едет в столицу Машин жених Сергей. Рядом с ним — его родители, которых он мечтает познакомить со своей невестой. Но добраться до Москвы не удаётся — волей случая вагон, в котором едет Сергей, оказывается одиноко брошенным на тупиковой ветке у полустанка Дальнее..

Кинопоиск
Sample
Тип релиза: HDTV 1080i
Контейнер: TS
Видео: MPEG4 AVC Video, H264, 16:9, 1920x1080, 25 fps, 8278 kbps
Аудио: Russian (MP2, 2 ch, 192 kbps, 16 bits, 48.0 KHz) - оригинал

MediaInfo
General
ID : 1 (0x1)
Complete name : K:\Вьюга HDTV 1080i.ts
Format : MPEG-TS
File size : 5.48 GiB
Duration : 1h 27mn
Overall bit rate mode : Variable
Overall bit rate : 8 912 Kbps
Video
ID : 306 (0x132)
Menu ID : 20106 (0x4E8A)
Format : AVC
Format/Info : Advanced Video Codec
Format profile : Main@L4.0
Format settings, CABAC : Yes
Format settings, ReFrames : 4 frames
Format settings, GOP : M=4, N=28
Codec ID : 27
Duration : 1h 27mn
Bit rate : 8 278 Kbps
Width : 1 920 pixels
Height : 1 080 pixels
Display aspect ratio : 16:9
Frame rate : 25.000 fps
Standard : Component
Color space : YUV
Chroma subsampling : 4:2:0
Bit depth : 8 bits
Scan type : Interlaced
Scan order : Top Field First
Bits/(Pixel*Frame) : 0.160
Stream size : 5.09 GiB (93%)
Color primaries : BT.709
Transfer characteristics : BT.709
Matrix coefficients : BT.709
Audio
ID : 406 (0x196)
Menu ID : 20106 (0x4E8A)
Format : MPEG Audio
Format version : Version 1
Format profile : Layer 2
Codec ID : 3
Duration : 1h 27mn
Bit rate mode : Constant
Bit rate : 192 Kbps
Channel count : 2 channels
Sampling rate : 48.0 KHz
Compression mode : Lossy
Delay relative to video : -80ms
Stream size : 121 MiB (2%)
Language : English
Скриншоты
Скачать

Скачать торрент!

Как скачивать? · Что такое торрент? · Рейтинг и ограничения

Сайт не распространяет и не хранит электронные версии произведений, а лишь предоставляет доступ к создаваемому пользователями каталогу ссылок на торрент-файлы, которые содержат только списки хеш-сумм

[Профиль] [ЛС]
Показать сообщения:    
Ответить на тему

Текущее время: Сегодня 05:54

Часовой пояс: GMT + 4



Вы не можете начинать темы
Вы не можете отвечать на сообщения
Вы не можете редактировать свои сообщения
Вы не можете удалять свои сообщения
Вы не можете голосовать в опросах
Вы не можете прикреплять файлы к сообщениям
Вы не можете скачивать файлы