Новые приключения кота Леопольда (Анатолий Резников) [2015, Россия, Мультфильм, приключения, SATRip]

Ответить на тему
 
Автор Сообщение

user ®

Стаж: 7 лет 7 месяцев

Сообщений: 20008

Пост Пост: #1 от 10-Янв-2016 20:27

[Цитировать]

Новые приключения кота Леопольда
Страна: Россия
Жанр: Мультфильм, приключения
Продолжительность: 13 х 00:14:00
Год выпуска: 2015
Перевод: Не требуется
Русские субтитры: нет
Режиссёр: Анатолий Резников
Роли озвучивали: Александр Калягин, Диомид Виноградов, Андрей Бархударов
Описание: Встречайте старого знакомого - самого доброго кота в мире - Леопольда в новых сериях! Как и все, Леопольд собирается встретить Новый год, но маленькие мышата хотят все испортить, потому что считают, что кот слишком счастливый...
Семпл: https://www.sendspace.com/file/0mgnie
Качество: SATRip
Формат: AVI
Видео: XVID; 720х400 (16:9); 1450 Кбит/сек; 25,000 кадров/сек
Аудио: AC-3; 192 Кбит/сек; 2 канала; 48,0 КГц
Субтитры: Отсутствуют
Подробные технические данные
ОбщееПолное имя : E:\закачки\Новые приключения кота Леопольда [rutracker.prg]\01 серия.aviФормат : AVIФормат/Информация : Audio Video InterleaveРазмер файла : 148 МбайтПродолжительность : 12 м.Общий поток : 1652 Кбит/секПрограмма кодирования : VirtualDubMod 1.5.10.3 | www.virtualdub-fr.org || (build 2550/release)Библиотека кодирования : VirtualDubMod build 2550/release
ВидеоИдентификатор : 0Формат : MPEG-4 VisualПрофиль формата : Advanced Simple@L5Параметр BVOP формата : 1Параметр QPel формата : НетПараметр GMC формата : Без точки переходаПараметр матрицы формата : ВыборочнаяИдентификатор кодека : XVIDИдентификатор кодека/Подсказка : XviDПродолжительность : 12 м.Битрейт : 1450 Кбит/секШирина : 720 пикселейВысота : 400 пикселейСоотношение сторон : 16:9Частота кадров : 25,000 кадров/секЦветовое пространство : YUVСубдискретизация насыщенности : 4:2:0Битовая глубина : 8 битТип развёртки : ПрогрессивнаяМетод сжатия : С потерямиБит/(Пиксели*Кадры) : 0.201Размер потока : 130 Мбайт (88%)Библиотека кодирования : XviD 73
АудиоИдентификатор : 1Формат : AC-3Формат/Информация : Audio Coding 3Расширение режима : CM (complete main)Параметр Endianness формата : BigИдентификатор кодека : 2000Продолжительность : 12 м.Вид битрейта : ПостоянныйБитрейт : 192 Кбит/секКаналы : 2 каналаРасположение каналов : Front: L RЧастота : 48,0 КГцБитовая глубина : 16 битМетод сжатия : С потерямиРазмер потока : 17,2 Мбайт (12%)Выравнивание : Разделение по промежуткамПродолжительность промежутка : 40 мс. (1,00 видеокадр)Время предзагрузки промежутка : 500 мс.
Скриншоты
Скачать

Скачать торрент!

Как скачивать? · Что такое торрент? · Рейтинг и ограничения

Сайт не распространяет и не хранит электронные версии произведений, а лишь предоставляет доступ к создаваемому пользователями каталогу ссылок на торрент-файлы, которые содержат только списки хеш-сумм

[Профиль] [ЛС]
Показать сообщения:    
Ответить на тему

Текущее время: Сегодня 10:06

Часовой пояс: GMT + 4



Вы не можете начинать темы
Вы не можете отвечать на сообщения
Вы не можете редактировать свои сообщения
Вы не можете удалять свои сообщения
Вы не можете голосовать в опросах
Вы не можете прикреплять файлы к сообщениям
Вы не можете скачивать файлы