Переводчик (Алексей Нужный) [2015, Россия, криминал, драма, WEB-DL 1080p] + Original Rus

Ответить на тему
 
Автор Сообщение

user ®

Стаж: 7 лет 7 месяцев

Сообщений: 20008

Пост Пост: #1 от 10-Янв-2016 20:27

[Цитировать]

Переводчик
Страна: Россия
Жанр: криминал, драма
Год выпуска: 2015
Продолжительность: 01:09:15-Перевод: Не требуется
Cубтитры: нет
Оригинальная аудиодорожка: русский-Режиссер: Алексей Нужный-В ролях: Леонид Ярмольник, Александр Ильин мл., Мария Андреева, Дмитрий Астрахан, Семен Трескунов, Луиза-Габриэла Бровина, Клара Лаго, Михаил Шамигулов, Станислав Дужников, Елена Плаксина
Описание: Воскресный папа отправляется в командировку вместе со своим двенадцатилетним сыном. Оказавшись свидетелем криминальной разборки, которую затеял главарь местной банды, сын попадает в больницу. Спасти жизнь мальчику может операция за границей. Но она стоит больших денег. Отец решается на отчаянный шаг - он соглашается исполнить три желания главаря банды.-Релиз от:
-Тип релиза: WEB-DL 1080p
Контейнер: MKV-Видео: MPEG4 AVC Video, H264, 16:9, 1918x804, 24 fps, 4375 kbps-Аудио: AC3, 6 ch, 384 kbps, 16 bits, 48.0 KHz
Сэмпл MediaInfo
Общее
Уникальный идентификатор : 246305316860103776030233736283062184832 (0xB94CADB38110376EA0EBCC69D4C2AB80)
Полное имя : E:\PEREVOD4IK_WEB_DL_1080p.mkv
Формат : Matroska
Версия формата : Version 4 / Version 2
Размер файла : 2,35 Гбайт
Продолжительность : 1 ч. 9 м.
Общий поток : 4856 Кбит/сек
Название фильма : PEREVOD4IK_WEB_DL_1080p-BLUEBIRD
Дата кодирования : UTC 2015-12-17 10:03:37
Программа кодирования : mkvmerge v7.1.0 ('Good Love') 64bit built on Jul 27 2014 13:06:55
Библиотека кодирования : libebml v1.3.0 + libmatroska v1.4.1
DURATION : 01:09:15.552000000
NUMBER_OF_FRAMES : 129861
NUMBER_OF_BYTES : 199466496
_STATISTICS_WRITING_APP : mkvmerge v7.1.0 ('Good Love') 64bit built on Jul 27 2014 13:06:55
_STATISTICS_WRITING_DATE_UTC : 2015-12-17 10:03:37
_STATISTICS_TAGS : BPS DURATION NUMBER_OF_FRAMES NUMBER_OF_BYTES
Видео
Идентификатор : 1
Формат : AVC
Формат/Информация : Advanced Video Codec
Профиль формата : High@L4.0
Параметр CABAC формата : Да
Параметр ReFrames формата : 5 кадров
Идентификатор кодека : V_MPEG4/ISO/AVC
Продолжительность : 1 ч. 9 м.
Битрейт : 4375 Кбит/сек
Ширина : 1918 пикселей
Высота : 804 пикселя
Соотношение сторон : 2,40:1
Режим частоты кадров : Постоянный
Частота кадров : 24,000 кадра/сек
Цветовое пространство : YUV
Субдискретизация насыщенности : 4:2:0
Битовая глубина : 8 бит
Тип развёртки : Прогрессивная
Бит/(Пиксели*Кадры) : 0.118
Размер потока : 2,12 Гбайт (90%)
Заголовок : PEREVOD4IK_WEB_DL_1080p-BLUEBIRD
Язык : Russian
Default : Да
Forced : Нет
Основные цвета : BT.709
Характеристики трансфера : BT.709
Коэффициенты матрицы : BT.709
colour_range : Limited
Аудио
Идентификатор : 2
Формат : AC-3
Формат/Информация : Audio Coding 3
Расширение режима : CM (complete main)
Параметр Endianness формата : Big
Идентификатор кодека : A_AC3
Продолжительность : 1 ч. 9 м.
Вид битрейта : Постоянный
Битрейт : 384 Кбит/сек
Каналы : 6 каналов
Расположение каналов : Front: L C R, Side: L R, LFE
Частота : 48,0 КГц
Битовая глубина : 16 бит
Метод сжатия : С потерями
Размер потока : 190 Мбайт (8%)
Заголовок : [ORIGINAL] DD 5.1 @ 384 kbps iTunes
Язык : Russian
Default : Да
Forced : Нет
Меню
00:00:00.000 : en:1
00:06:42.000 : en:2
00:12:24.000 : en:3
00:19:10.000 : en:4
00:24:54.000 : en:5
00:30:46.000 : en:6
00:35:45.000 : en:7
00:41:25.000 : en:8
00:46:57.000 : en:9
00:52:49.000 : en:10
00:57:53.000 : en:11
01:03:23.000 : en:12
Скриншоты
Скачать

Скачать торрент!

Как скачивать? · Что такое торрент? · Рейтинг и ограничения

Сайт не распространяет и не хранит электронные версии произведений, а лишь предоставляет доступ к создаваемому пользователями каталогу ссылок на торрент-файлы, которые содержат только списки хеш-сумм

[Профиль] [ЛС]
Показать сообщения:    
Ответить на тему

Текущее время: Сегодня 13:37

Часовой пояс: GMT + 4



Вы не можете начинать темы
Вы не можете отвечать на сообщения
Вы не можете редактировать свои сообщения
Вы не можете удалять свои сообщения
Вы не можете голосовать в опросах
Вы не можете прикреплять файлы к сообщениям
Вы не можете скачивать файлы