Приходи на меня посмотреть (Олег Янковский, Михаил Агранович) [2000, комедия, мелодрама, DVDRip-AVC] Sub Rus, Eng

Ответить на тему
 
Автор Сообщение

user ®

Стаж: 7 лет 7 месяцев

Сообщений: 20008

Пост Пост: #1 от 10-Янв-2016 08:03

[Цитировать]

Приходи на меня посмотреть
Год выпуска: 2000
Страна: Россия, к/ст им.Горького, НТВ-профит
Жанр: комедия, мелодрама
Продолжительность: 01:41:56
Режиссер: Олег Янковский, Михаил Агранович
Сценарий: Надежда Птушкина
Продюсер: Игорь Толстунов, Владимир Грамматиков, Михаил Зильберман, Владимир Репников
Оператор: Михаил Агранович
Композитор: Вадим Биберган
Художник: Владимир Филиппов, Ольга Кравченя
Монтаж: Вера Круглова
В ролях: Екатерина Васильева, Ирина Купченко, Олег Янковский, Наталья Щукина
Описание: По мотивам пьесы Надежды Михайловны Птушкиной "Пока она умирала". Перед Новым годом окна огромного города светятся изнутри разноцветными елочными огнями. Кажется, что за каждым из этих окон осторожно хранят любимый праздник. Кажется, что за каждым из них ждут новогоднего исполнения желаний… К силуэту пожилой женщины за одним из окон старого московского дома соседи по двору наверняка привыкли как к чему-то неизменному. Софья Ивановна уже десять лет не встает со своего кресла, целыми днями смотрит в окно, клеит из бумаги трогательные фигурки и слушает Диккенса, которого читает ей вслух единственная дочь Таня. Единственная наследница, Таня, которая должна бы передать драгоценности своей дочери, похоже, смирилась с положением старой девы, и вся ее жизнь состоит только из забот о больной матери.
Возможно, эти женщины провели бы вдвоем еще немало тихих, уединенных лет в своей уютной квартире, если бы в один из предновогодних вечеров Софья Ивановна не собралась бы. .. умирать. О чем и сообщила своей дочери. И так сильно захотелось Софье Ивановне, чтобы ее дочь была счастлива, а Тане так захотелось, чтобы у ее мамы на душе было спокойно…. И так близок был Новый год, что за окном старой московской квартиры начались самые настоящие новогодние чудеса…
Качество видео: DVDRip-AVC |[url=http://***/forum/viewtopic.php?t=109073]DVD9[/url]|
Формат: MKV
Видео: AVC (x264), 720x544 (1.33:1), ~3630 kbps, 25.000 fps, 0.371 bpp
Аудио: AС3, 48 KHz, 6 ch, 448 kbps
Cубтитры: русские, английские
Формат субтитров: softsub (SRT)
Релиз:

MediaInfo
Общее
Уникальный идентификатор : 227841018961088634304012749217407173202 (0xAB6895876D0B4A2790C14C8D5DB80252)
Полное имя : ...\Prihodi.na.menya.posmotret_2000.NN@LIFE.mkv
Формат : Matroska
Версия формата : Version 4 / Version 2
Размер файла : 2,91 Гбайт
Продолжительность : 1 ч. 41 м.
Общий поток : 4080 Кбит/сек
Название фильма : Приходи на меня посмотреть / 2000 -=NN@LIFE=-
Дата кодирования : UTC 2016-01-09 13:41:06
Программа кодирования : mkvmerge v8.7.0 ('All of the above') 32bit
Библиотека кодирования : libebml v1.3.3 + libmatroska v1.4.4
Видео
Идентификатор : 1
Формат : AVC
Формат/Информация : Advanced Video Codec
Профиль формата : High@L4.1
Параметр CABAC формата : Да
Параметр ReFrames формата : 9 кадров
Идентификатор кодека : V_MPEG4/ISO/AVC
Продолжительность : 1 ч. 41 м.
Битрейт : 3630 Кбит/сек
Ширина : 720 пикселей
Высота : 544 пикселя
Соотношение сторон : 4:3
Режим частоты кадров : Постоянный
Частота кадров : 25,000 кадров/сек
Цветовое пространство : YUV
Субдискретизация насыщенности : 4:2:0
Битовая глубина : 8 бит
Тип развёртки : Прогрессивная
Бит/(Пиксели*Кадры) : 0.371
Размер потока : 2,58 Гбайт (89%)
Заголовок : Rip by nnlabetik
Библиотека кодирования : x264 core 148 r2638 7599210
Настройки программы : cabac=1 / ref=9 / deblock=1:-2:-1 / analyse=0x3:0x113 / me=umh / subme=11 / psy=1 / psy_rd=1.00:0.00 / mixed_ref=1 / me_range=32 / chroma_me=1 / trellis=2 / 8x8dct=1 / cqm=0 / deadzone=21,11 / fast_pskip=0 / chroma_qp_offset=-2 / threads=4 / lookahead_threads=1 / sliced_threads=0 / nr=0 / decimate=1 / interlaced=0 / bluray_compat=0 / constrained_intra=0 / bframes=10 / b_pyramid=2 / b_adapt=2 / b_bias=0 / direct=3 / weightb=1 / open_gop=0 / weightp=0 / keyint=250 / keyint_min=25 / scenecut=40 / intra_refresh=0 / rc_lookahead=60 / rc=2pass / mbtree=0 / bitrate=3630 / ratetol=1.0 / qcomp=0.60 / qpmin=0 / qpmax=69 / qpstep=4 / cplxblur=20.0 / qblur=0.5 / vbv_maxrate=20000 / vbv_bufsize=25000 / nal_hrd=none / filler=0 / ip_ratio=1.35 / pb_ratio=1.25 / aq=1:1.00
Язык : Russian
Default : Да
Forced : Нет
Цветовой диапазон : Limited
Основные цвета : BT.709
Характеристики трансфера : BT.709
Коэффициенты матрицы : BT.709
Аудио
Идентификатор : 2
Формат : AC-3
Формат/Информация : Audio Coding 3
Расширение режима : CM (complete main)
Параметр Endianness формата : Big
Идентификатор кодека : A_AC3
Продолжительность : 1 ч. 41 м.
Вид битрейта : Постоянный
Битрейт : 448 Кбит/сек
Каналы : 6 каналов
Расположение каналов : Front: L C R, Side: L R, LFE
Частота : 48,0 КГц
Частота кадров : 31,250 кадров/сек (1536 spf)
Метод сжатия : С потерями
Размер потока : 327 Мбайт (11%)
Язык : Russian
Default : Да
Forced : Нет
Текст #1
Идентификатор : 3
Формат : UTF-8
Идентификатор кодека : S_TEXT/UTF8
Идентификатор кодека/Информация : UTF-8 Plain Text
Продолжительность : 1 ч. 35 м.
Битрейт : 115 бит/сек
Count of elements : 1688
Размер потока : 80,5 Кбайт (0%)
Язык : Russian
Default : Нет
Forced : Нет
Текст #2
Идентификатор : 4
Формат : UTF-8
Идентификатор кодека : S_TEXT/UTF8
Идентификатор кодека/Информация : UTF-8 Plain Text
Продолжительность : 1 ч. 38 м.
Битрейт : 56 бит/сек
Count of elements : 1557
Размер потока : 40,5 Кбайт (0%)
Язык : English
Default : Нет
Forced : Нет
Меню
00:00:00.000 : :Chapter 01
00:02:33.000 : :Chapter 02
00:07:46.200 : :Chapter 03
00:13:28.200 : :Chapter 04
00:18:52.800 : :Chapter 05
00:25:16.800 : :Chapter 06
00:31:52.800 : :Chapter 07
00:36:21.000 : :Chapter 08
00:41:52.800 : :Chapter 09
00:50:17.400 : :Chapter 10
00:55:54.600 : :Chapter 11
01:00:25.200 : :Chapter 12
01:08:28.800 : :Chapter 13
01:13:46.800 : :Chapter 14
01:20:02.400 : :Chapter 15
01:25:01.200 : :Chapter 16
01:28:11.400 : :Chapter 17
01:30:50.400 : :Chapter 18
01:34:49.200 : :Chapter 19
Скриншоты Сравнение
Сравнение с раздачей [url=http://***/forum/viewtopic.php?t=2931125]http://***/forum/viewtopic.php?t=2931125[/url]
http://screenshotcomparison.com/comparison/157501
Скачать

Скачать торрент!

Как скачивать? · Что такое торрент? · Рейтинг и ограничения

Сайт не распространяет и не хранит электронные версии произведений, а лишь предоставляет доступ к создаваемому пользователями каталогу ссылок на торрент-файлы, которые содержат только списки хеш-сумм

[Профиль] [ЛС]
Показать сообщения:    
Ответить на тему

Текущее время: Сегодня 13:48

Часовой пояс: GMT + 4



Вы не можете начинать темы
Вы не можете отвечать на сообщения
Вы не можете редактировать свои сообщения
Вы не можете удалять свои сообщения
Вы не можете голосовать в опросах
Вы не можете прикреплять файлы к сообщениям
Вы не можете скачивать файлы