Люди, места, вещи / People Places Things (Джеймс С. Страуз / James C. Strouse) [2015, США, комедия, WEB-DL 720p] DVO (Ozz) + Sub Rus, Eng + Original Eng

Ответить на тему
 
Автор Сообщение

user ®

Стаж: 7 лет 7 месяцев

Сообщений: 20008

Пост Пост: #1 от 09-Янв-2016 22:48

[Цитировать]

Люди, места, вещи / People Places Things
Страна: США
Студия: Beachside Films
Жанр: комедия
Год выпуска: 2015
Продолжительность: 01:26:39
Перевод: Профессиональный (двухголосый закадровый) Ozz
Cубтитры: русские (Trotteville), английские
Оригинальная аудиодорожка: английский
Режиссер: Джеймс С. Страуз / James C. Strouse
В ролях: Джемейн Клемент, Реджина Холл, Джессика Уильямс, Майкл Чернус, Ондреа Гадсби, Гия Гадсби, Деррик Артур, Селия Ау, Катрин Кэйн
Описание: Недавно разведённый автор графических новелл пытается воспитывать двух дочерей, учить студентов и искать новую любовь, хотя для этого ему потребуется забыть бывшую жену.
Доп. информация: Озвучка: Алексей Серёгин и Ирина Воронова. Перевод: Trotteville
Кинопоиск
Sample
Тип релиза: WEB-DL 720p
Контейнер: MKV
Видео: MPEG4 AVC Video, H264, 16:9, 1280x712, 23.976 fps, 3931 kbps
Аудио: Russian (AC3, 6 ch, 384 kbps, 16 bits, 48.0 KHz) - DVO
Аудио 2: English (AC3, 6 ch, 384 kbps, 16 bits, 48.0 KHz) - оригинал
Формат субтитров: softsub (SRT)

MediaInfo
General
Unique ID : 242976472671309553927556255570196216857 (0xB6CB9102DCC3D34CB371C214E99CBC19)
Complete name : K:\People Places Things 2015 WEB-DL 720p.mkv
Format : Matroska
Format version : Version 4 / Version 2
File size : 2.90 GiB
Duration : 1h 26mn
Overall bit rate : 4 795 Kbps
Encoded date : UTC 2015-12-09 00:33:02
Writing application : mkvmerge v6.1.0 ('Old Devil') built on Mar 2 2013 14:32:37
Writing library : libebml v1.3.0 + libmatroska v1.4.0
Video
ID : 1
Format : AVC
Format/Info : Advanced Video Codec
Format profile : High@L3.1
Format settings, CABAC : No
Format settings, ReFrames : 2 frames
Codec ID : V_MPEG4/ISO/AVC
Duration : 1h 26mn
Bit rate : 3 931 Kbps
Width : 1 280 pixels
Height : 712 pixels
Display aspect ratio : 16:9
Frame rate mode : Constant
Frame rate : 23.976 fps
Color space : YUV
Chroma subsampling : 4:2:0
Bit depth : 8 bits
Scan type : Progressive
Bits/(Pixel*Frame) : 0.180
Stream size : 2.38 GiB (82%)
Language : English
Default : Yes
Forced : No
Color primaries : BT.709
Transfer characteristics : BT.709
Matrix coefficients : BT.709
Audio #1
ID : 2
Format : AC-3
Format/Info : Audio Coding 3
Mode extension : CM (complete main)
Format settings, Endianness : Big
Codec ID : A_AC3
Duration : 1h 26mn
Bit rate mode : Constant
Bit rate : 384 Kbps
Channel count : 6 channels
Channel positions : Front: L C R, Side: L R, LFE
Sampling rate : 48.0 KHz
Bit depth : 16 bits
Compression mode : Lossy
Stream size : 238 MiB (8%)
Language : Russian
Default : Yes
Forced : No
Audio #2
ID : 3
Format : AC-3
Format/Info : Audio Coding 3
Mode extension : CM (complete main)
Format settings, Endianness : Big
Codec ID : A_AC3
Duration : 1h 26mn
Bit rate mode : Constant
Bit rate : 384 Kbps
Channel count : 6 channels
Channel positions : Front: L C R, Side: L R, LFE
Sampling rate : 48.0 KHz
Bit depth : 16 bits
Compression mode : Lossy
Stream size : 238 MiB (8%)
Language : English
Default : No
Forced : No
Text #1
ID : 4
Format : UTF-8
Codec ID : S_TEXT/UTF8
Codec ID/Info : UTF-8 Plain Text
Title : Trotteville
Language : Russian
Default : No
Forced : No
Text #2
ID : 5
Format : UTF-8
Codec ID : S_TEXT/UTF8
Codec ID/Info : UTF-8 Plain Text
Language : English
Default : No
Forced : No
Menu
00:00:00.000 : en:1
00:10:13.000 : en:2
00:24:28.000 : en:3
00:35:10.000 : en:4
00:51:38.000 : en:5
01:03:34.000 : en:6
01:14:30.000 : en:7
Скриншоты
Скачать

Скачать торрент!

Как скачивать? · Что такое торрент? · Рейтинг и ограничения

Сайт не распространяет и не хранит электронные версии произведений, а лишь предоставляет доступ к создаваемому пользователями каталогу ссылок на торрент-файлы, которые содержат только списки хеш-сумм

[Профиль] [ЛС]
Показать сообщения:    
Ответить на тему

Текущее время: Сегодня 17:42

Часовой пояс: GMT + 4



Вы не можете начинать темы
Вы не можете отвечать на сообщения
Вы не можете редактировать свои сообщения
Вы не можете удалять свои сообщения
Вы не можете голосовать в опросах
Вы не можете прикреплять файлы к сообщениям
Вы не можете скачивать файлы