Похитители тел / Body snatchers (Абель Феррара / Abel Ferrara) [1993, США, ужасы, фантастика, WEB-DL 720p] MVO + Dub (Варус видео) + AVO (Андрей Гаврилов) + DVO (ОРТ) + Sub Rus, Eng + Original Eng

Ответить на тему
 
Автор Сообщение

user ®

Стаж: 7 лет 7 месяцев

Сообщений: 20008

Пост Пост: #1 от 09-Янв-2016 22:48

[Цитировать]

Похитители тел / Body snatchers
Страна: США
Студия: Dorset Productions, Robert H. Solo Productions, Warner Bros.
Жанр: ужасы, фантастика
Год выпуска: 1993
Продолжительность: 01:27:20
Перевод 1: Профессиональный (многоголосый закадровый) есть вставка с переводом А. Гаврилова
Перевод 2: Профессиональный (дублированный) Варус видео
Перевод 3: Авторский (одноголосый закадровый) Андрей Гаврилов
Перевод 4: Профессиональный (двухголосый закадровый) ОРТ
Cубтитры: русские, английские
Оригинальная аудиодорожка: английский
Режиссер: Абель Феррара / Abel Ferrara
В ролях: Габриель Анвар, Терри Кинни, Билли Уэрт, Райлли Мёрфи, Мег Тилли, Кристин Элиз, Р. Ли Эрми, Кэтлин Дойл, Форест Уитакер, Дж. Элвис Филлипс и др.
Описание: Марти Мэлоун - дочь биолога, на летние каникулы едет вместе с отцом, мачехой и сводным братом на американскую военную базу, на которой её отец будет инспектировать некоторые токсичные продукты. На автозаправке Марти напугана солдатом, который говорит ей не спать, потому что они забирают, когда спишь. Вскоре, видя странное поведение людей на базе, Марти понимает, что инопланетяне похищают людей и заменяют их двойниками для захвата Земли.
II Сэмпл II IMDB II
Доп. информация:
За предоставленный исходник спасибо rufedosenkos
За многоголоску и перевод Андрея Гаврилова спасибо гришпан
За дубляж спасибо formally
За перевод ОРТ спасибо Taylorjack
Тип релиза: WEB-DL 720p
Контейнер: MKV
Видео: AVC / 1280x532 / 2.40:1 / 23.976fps / Bit rate 4056Kbps
Аудио 1: AC3 / 48.0 KHz / 2ch. / 192kbps / rus / MVO
Аудио 2: AC3 / 48.0 KHz / 2ch. / 192kbps / rus / Dub / Варус видео
Аудио 3: AC3 / 48.0 KHz / 2ch. / 192kbps / rus / AVO / Андрей Гаврилов
Аудио 4: AC3 / 48.0 KHz / 2ch. / 192kbps / rus / DVO / ОРТ
Аудио 5: AC3 / 48.0 KHz / 6ch. / 384kbps / eng
Формат субтитров: softsub (SRT)
MediaInfo
Общее
Уникальный идентификатор : 171775414031173355780514897379073268196 (0x813ABDC9B7AFEBDC91748CF5510119E4)
Полное имя : G:\!!!_torrent\Body.Snatchers.1993.WEB-DL.720p_by_vedigo.mkv
Формат : Matroska
Версия формата : Version 4 / Version 2
Размер файла : 3,18 Гбайт
Продолжительность : 1 ч. 27 м.
Общий поток : 5211 Кбит/сек
Название фильма : Body.Snatchers.1993.WEB-DL.720p_by_vedigo
Дата кодирования : UTC 2015-12-09 03:50:46
Программа кодирования : mkvmerge v8.6.1 ('Flying') 64bit
Библиотека кодирования : libebml v1.3.3 + libmatroska v1.4.4
Видео
Идентификатор : 1
Формат : AVC
Формат/Информация : Advanced Video Codec
Профиль формата : Main@L3.1
Параметр CABAC формата : Нет
Параметр ReFrames формата : 2 кадра
Параметр GOP формата : N=1
Идентификатор кодека : V_MPEG4/ISO/AVC
Продолжительность : 1 ч. 27 м.
Битрейт : 4056 Кбит/сек
Ширина : 1280 пикселей
Высота : 532 пикселя
Соотношение сторон : 2,40:1
Режим частоты кадров : Постоянный
Частота кадров : 23,976 (23976/1000) кадра/сек
Цветовое пространство : YUV
Субдискретизация насыщенности : 4:2:0
Битовая глубина : 8 бит
Тип развёртки : Прогрессивная
Бит/(Пиксели*Кадры) : 0.248
Размер потока : 2,47 Гбайт (78%)
Заголовок : Body.Snatchers.1993.WEB-DL.720p_by_vedigo
Язык : English
Default : Да
Forced : Нет
Цветовой диапазон : Limited
Основные цвета : BT.709
Характеристики трансфера : BT.709
Коэффициенты матрицы : BT.709
Аудио #1
Идентификатор : 2
Формат : AC-3
Формат/Информация : Audio Coding 3
Расширение режима : CM (complete main)
Параметр Endianness формата : Big
Идентификатор кодека : A_AC3
Продолжительность : 1 ч. 27 м.
Вид битрейта : Постоянный
Битрейт : 192 Кбит/сек
Каналы : 2 канала
Расположение каналов : Front: L R
Частота : 48,0 КГц
Частота кадров : 31,250 кадров/сек (1536 spf)
Метод сжатия : С потерями
Размер потока : 120 Мбайт (4%)
Заголовок : MVO
Язык : Russian
Default : Да
Forced : Нет
Аудио #2
Идентификатор : 3
Формат : AC-3
Формат/Информация : Audio Coding 3
Расширение режима : CM (complete main)
Параметр Endianness формата : Big
Идентификатор кодека : A_AC3
Продолжительность : 1 ч. 27 м.
Вид битрейта : Постоянный
Битрейт : 192 Кбит/сек
Каналы : 2 канала
Расположение каналов : Front: L R
Частота : 48,0 КГц
Частота кадров : 31,250 кадров/сек (1536 spf)
Метод сжатия : С потерями
Размер потока : 120 Мбайт (4%)
Заголовок : Dub @ Варус видео
Язык : Russian
Default : Нет
Forced : Нет
Аудио #3
Идентификатор : 4
Формат : AC-3
Формат/Информация : Audio Coding 3
Расширение режима : CM (complete main)
Параметр Endianness формата : Big
Идентификатор кодека : A_AC3
Продолжительность : 1 ч. 27 м.
Вид битрейта : Постоянный
Битрейт : 192 Кбит/сек
Каналы : 2 канала
Расположение каналов : Front: L R
Частота : 48,0 КГц
Частота кадров : 31,250 кадров/сек (1536 spf)
Метод сжатия : С потерями
Размер потока : 120 Мбайт (4%)
Заголовок : AVO @ Андрей Гаврилов
Язык : Russian
Default : Нет
Forced : Нет
Аудио #4
Идентификатор : 5
Формат : AC-3
Формат/Информация : Audio Coding 3
Расширение режима : CM (complete main)
Параметр Endianness формата : Big
Идентификатор кодека : A_AC3
Продолжительность : 1 ч. 27 м.
Вид битрейта : Постоянный
Битрейт : 192 Кбит/сек
Каналы : 2 канала
Расположение каналов : Front: L R
Частота : 48,0 КГц
Частота кадров : 31,250 кадров/сек (1536 spf)
Метод сжатия : С потерями
Размер потока : 120 Мбайт (4%)
Заголовок : DVO @ ОРТ
Язык : Russian
Default : Нет
Forced : Нет
Аудио #5
Идентификатор : 6
Формат : AC-3
Формат/Информация : Audio Coding 3
Расширение режима : CM (complete main)
Параметр Endianness формата : Big
Идентификатор кодека : A_AC3
Продолжительность : 1 ч. 27 м.
Вид битрейта : Постоянный
Битрейт : 384 Кбит/сек
Каналы : 6 каналов
Расположение каналов : Front: L C R, Side: L R, LFE
Частота : 48,0 КГц
Частота кадров : 31,250 кадров/сек (1536 spf)
Метод сжатия : С потерями
Размер потока : 240 Мбайт (7%)
Заголовок : original
Язык : English
Default : Нет
Forced : Нет
Текст #1
Идентификатор : 7
Формат : UTF-8
Идентификатор кодека : S_TEXT/UTF8
Идентификатор кодека/Информация : UTF-8 Plain Text
Продолжительность : 1 ч. 20 м.
Битрейт : 46 бит/сек
Count of elements : 703
Размер потока : 27,3 Кбайт (0%)
Заголовок : subtitle rus
Язык : Russian
Default : Нет
Forced : Нет
Текст #2
Идентификатор : 8
Формат : UTF-8
Идентификатор кодека : S_TEXT/UTF8
Идентификатор кодека/Информация : UTF-8 Plain Text
Продолжительность : 1 ч. 23 м.
Битрейт : 38 бит/сек
Count of elements : 1064
Размер потока : 23,4 Кбайт (0%)
Заголовок : subtitle eng
Язык : English
Default : Нет
Forced : Нет
Скриншоты
Скачать

Скачать торрент!

Как скачивать? · Что такое торрент? · Рейтинг и ограничения

Сайт не распространяет и не хранит электронные версии произведений, а лишь предоставляет доступ к создаваемому пользователями каталогу ссылок на торрент-файлы, которые содержат только списки хеш-сумм

[Профиль] [ЛС]
Показать сообщения:    
Ответить на тему

Текущее время: Сегодня 01:14

Часовой пояс: GMT + 4



Вы не можете начинать темы
Вы не можете отвечать на сообщения
Вы не можете редактировать свои сообщения
Вы не можете удалять свои сообщения
Вы не можете голосовать в опросах
Вы не можете прикреплять файлы к сообщениям
Вы не можете скачивать файлы