Отель для собак / Hotel for Dogs (Тор Фреденталь / Thor Freudenthal) [2009, США, комедия, семейный, BDRip 720p] Dub + DVO + Original (Eng) + Sub (Rus, Eng)

Ответить на тему
 
Автор Сообщение

user ®

Стаж: 7 лет 7 месяцев

Сообщений: 20008

Пост Пост: #1 от 09-Янв-2016 22:48

[Цитировать]

Отель для собак / Hotel for Dogs
«Каждую дворняжку ждет веселая семейка»
- Страна: США
Жанр: комедия, семейный
Год выпуска: 2009
Продолжительность: 01:39:59-Перевод №1: Профессиональный (дублированный)
Перевод №2: Профессиональный (двухголосый закадровый)
Оригинальная аудиодорожка: English
Cубтитры: Русские (полные), English (full + full SDH)
Навигация по главам: присутствует - 16 глав-Режиссер: Тор Фреденталь / Thor Freudenthal
В ролях: Эмма Робертс, Джэйк Зиманский, Дон Чидл, Джонни Симмонс, Кайла Прэтт, Трой Джентиле, Лиза Кудроу, Кевин Диллон, Аджай Найду, Эрик Эдельштейн-Описание: Энди и Брюсу нужно спрятать свою собаку Пятницу, и они превращают заброшенный отель в приют, где рады любой дворняжке.-
Download sample-Качество видео: BDRip 720p | исх. [url=http://***/forum/viewtopic.php?t=4488548]BDRemux 1080p[/url] - thx: [url=http://***/forum/profile.php?mode=viewprofile&u=756398]Тарантиныч[/url]
Формат: MKV-Видео: 1 280x720 (16:9), 23.976 fps, H.264, 8971.23 kb/s, 0.397 bit/pixel
Аудио №1: 48.0 kHz, AC3 Dolby Digital, 3/2 (L,C,R,l,r) + LFE ch, ~448 kbps | Профессиональный (дублированный)
Аудио №2: 48.0 kHz, AC3 Dolby Digital, 3/2 (L,C,R,l,r) + LFE ch, ~448 kbps | Профессиональный (двухголосый закадровый)
Аудио №3: 48.0 kHz, AC3 Dolby Digital, 3/2 (L,C,R,l,r) + LFE ch, ~640 kbps | English
Субтитры №1: Русские (полные) | *.srt
Субтитры №2: English (full) | *.srt
Субтитры №3: English (full SDH) | *.srt-

MediaInfo
General
Unique ID : 215332444257041571597556383836714574951 (0xA1FF852E66A8555EA41A2E566E382467)
Complete name : D:\Фильмы\Рипы\Hotel for Dogs.2009.BDRip 720p.eFK tRuAVC.mkv
Format : Matroska
Format version : Version 4 / Version 2
File size : 7.35 GiB
Duration : 1h 39mn
Overall bit rate : 10.5 Mbps
Movie name : Отель для собак / Hotel for Dogs (2009) - Release for rutracker
Encoded date : UTC 2015-12-09 08:18:01
Writing application : mkvmerge v7.6.0 ('Garden of Dreams') 64bit built on Feb 8 2015 13:04:34
Writing library : libebml v1.3.1 + libmatroska v1.4.2
Attachements : cover.png
DURATION : 01:33:28.310000000
NUMBER_OF_FRAMES : 1178
NUMBER_OF_BYTES : 37746
_STATISTICS_WRITING_APP : mkvmerge v7.6.0 ('Garden of Dreams') 64bit built on Feb 8 2015 13:04:34
_STATISTICS_WRITING_DATE_UT : 2015-12-09 08:18:01
_STATISTICS_TAGS : BPS DURATION NUMBER_OF_FRAMES NUMBER_OF_BYTES
Video
ID : 1
Format : AVC
Format/Info : Advanced Video Codec
Format profile : High@L4.1
Format settings, CABAC : Yes
Format settings, ReFrames : 8 frames
Codec ID : V_MPEG4/ISO/AVC
Duration : 1h 39mn
Bit rate : 8 775 Kbps
Width : 1 280 pixels
Height : 720 pixels
Display aspect ratio : 16:9
Frame rate mode : Constant
Frame rate : 23.976 fps
Color space : YUV
Chroma subsampling : 4:2:0
Bit depth : 8 bits
Scan type : Progressive
Bits/(Pixel*Frame) : 0.397
Stream size : 6.13 GiB (83%)
Writing library : x264 core 148 r2638kMod 7599210
Encoding settings : cabac=1 / ref=8 / deblock=1:-3:-3 / analyse=0x3:0x113 / me=umh / subme=11 / psy=1 / fade_compensate=0.00 / psy_rd=1.07:0.00 / mixed_ref=1 / me_range=48 / chroma_me=1 / trellis=2 / 8x8dct=1 / cqm=0 / deadzone=21,11 / fast_pskip=0 / chroma_qp_offset=-2 / threads=12 / lookahead_threads=3 / sliced_threads=0 / nr=0 / decimate=1 / interlaced=0 / bluray_compat=0 / constrained_intra=0 / fgo=0 / bframes=16 / b_pyramid=2 / b_adapt=2 / b_bias=0 / direct=3 / weightb=1 / open_gop=0 / weightp=2 / keyint=250 / keyint_min=23 / scenecut=40 / intra_refresh=0 / rc_lookahead=60 / rc=crf / mbtree=0 / crf=17.4000 / qcomp=0.70 / qpmin=0 / qpmax=69 / qpstep=4 / vbv_maxrate=62500 / vbv_bufsize=78125 / crf_max=0.0 / nal_hrd=none / filler=0 / ip_ratio=1.40 / pb_ratio=1.30 / aq=3:0.85
Language : English
Default : Yes
Forced : No
Color range : Limited
Color primaries : BT.709
Transfer characteristics : BT.709
Matrix coefficients : BT.709
DURATION : 01:39:58.993000000
NUMBER_OF_FRAMES : 143832
NUMBER_OF_BYTES : 6727295257
_STATISTICS_WRITING_APP : mkvmerge v7.6.0 ('Garden of Dreams') 64bit built on Feb 8 2015 13:04:34
_STATISTICS_WRITING_DATE_UT : 2015-12-09 08:18:01
_STATISTICS_TAGS : BPS DURATION NUMBER_OF_FRAMES NUMBER_OF_BYTES
Audio #1
ID : 2
Format : AC-3
Format/Info : Audio Coding 3
Mode extension : CM (complete main)
Format settings, Endianness : Big
Codec ID : A_AC3
Duration : 1h 39mn
Bit rate mode : Constant
Bit rate : 448 Kbps
Channel(s) : 6 channels
Channel positions : Front: L C R, Side: L R, LFE
Sampling rate : 48.0 KHz
Compression mode : Lossy
Stream size : 320 MiB (4%)
Title : Профессиональный (дублированный)
Language : Russian
Default : Yes
Forced : No
Audio #2
ID : 3
Format : AC-3
Format/Info : Audio Coding 3
Mode extension : CM (complete main)
Format settings, Endianness : Big
Codec ID : A_AC3
Duration : 1h 39mn
Bit rate mode : Constant
Bit rate : 448 Kbps
Channel(s) : 6 channels
Channel positions : Front: L C R, Side: L R, LFE
Sampling rate : 48.0 KHz
Compression mode : Lossy
Stream size : 320 MiB (4%)
Title : Профессиональный (двухголосый закадровый)
Language : Russian
Default : No
Forced : No
Audio #3
ID : 4
Format : AC-3
Format/Info : Audio Coding 3
Mode extension : CM (complete main)
Format settings, Endianness : Big
Codec ID : A_AC3
Duration : 1h 39mn
Bit rate mode : Constant
Bit rate : 640 Kbps
Channel(s) : 6 channels
Channel positions : Front: L C R, Side: L R, LFE
Sampling rate : 48.0 KHz
Compression mode : Lossy
Stream size : 458 MiB (6%)
Language : English
Default : No
Forced : No
Text #1
ID : 5
Format : UTF-8
Codec ID : S_TEXT/UTF8
Codec ID/Info : UTF-8 Plain Text
Title : полные
Language : Russian
Default : No
Forced : No
Text #2
ID : 6
Format : UTF-8
Codec ID : S_TEXT/UTF8
Codec ID/Info : UTF-8 Plain Text
Title : full
Language : English
Default : No
Forced : No
Text #3
ID : 7
Format : UTF-8
Codec ID : S_TEXT/UTF8
Codec ID/Info : UTF-8 Plain Text
Title : full SDH
Language : English
Default : No
Forced : No
Menu
00:00:00.000 : en:00:00:00.000
00:04:12.961 : en:00:04:12.961
00:07:48.385 : en:00:07:48.385
00:14:47.053 : en:00:14:47.053
00:20:36.569 : en:00:20:36.569
00:27:26.144 : en:00:27:26.144
00:33:09.196 : en:00:33:09.196
00:39:19.566 : en:00:39:19.566
00:46:31.247 : en:00:46:31.247
00:53:08.435 : en:00:53:08.435
00:59:30.108 : en:00:59:30.108
01:05:03.233 : en:01:05:03.233
01:10:21.092 : en:01:10:21.092
01:18:32.166 : en:01:18:32.166
01:24:43.161 : en:01:24:43.161
01:33:53.878 : en:01:33:53.878
x264 log
x264 [info]: frame I:1084 Avg QP:15.62 size:163190
x264 [info]: frame P:34626 Avg QP:17.18 size: 78756
x264 [info]: frame B:108122 Avg QP:19.03 size: 35362
x264 [info]: consecutive B-frames: 2.1% 4.5% 8.3% 37.5% 16.9% 27.2% 1.7% 1.2% 0.2% 0.2% 0.0% 0.1% 0.0% 0.0% 0.0% 0.0% 0.1%
x264 [info]: mb I I16..4: 4.2% 79.7% 16.1%
x264 [info]: mb P I16..4: 0.8% 23.8% 1.8% P16..4: 23.2% 30.5% 13.2% 0.0% 0.0% skip: 6.8%
x264 [info]: mb B I16..4: 0.1% 3.4% 0.2% B16..8: 35.7% 23.7% 5.7% direct: 9.1% skip:22.1% L0:40.7% L1:41.8% BI:17.5%
x264 [info]: 8x8 transform intra:90.0% inter:57.9%
x264 [info]: direct mvs spatial:100.0% temporal:0.0%
x264 [info]: coded y,uvDC,uvAC intra: 94.9% 93.1% 82.2% inter: 45.9% 38.4% 17.9%
x264 [info]: i16 v,h,dc,p: 65% 9% 6% 21%
x264 [info]: i8 v,h,dc,ddl,ddr,vr,hd,vl,hu: 9% 7% 11% 10% 14% 13% 13% 12% 13%
x264 [info]: i4 v,h,dc,ddl,ddr,vr,hd,vl,hu: 10% 7% 5% 9% 16% 15% 14% 12% 12%
x264 [info]: i8c dc,h,v,p: 53% 14% 14% 19%
x264 [info]: Weighted P-Frames: Y:3.6% UV:2.6%
x264 [info]: ref P L0: 45.9% 13.2% 18.9% 6.5% 5.5% 3.7% 3.6% 2.4% 0.3% 0.0%
x264 [info]: ref B L0: 78.2% 11.2% 4.7% 2.5% 1.7% 1.0% 0.5%
x264 [info]: ref B L1: 94.6% 5.4%
x264 [info]: kb/s:8971.23
x264 [total]: encoded 143832 frames, 5.43 fps, 8971.23 kb/s, duration 7:21:26.94
Screenshots Comparison
Source

Encode

[url=http://***/forum/viewtopic.php?t=1787348]zim2001[/url]
Скачать

Скачать торрент!

Как скачивать? · Что такое торрент? · Рейтинг и ограничения

Сайт не распространяет и не хранит электронные версии произведений, а лишь предоставляет доступ к создаваемому пользователями каталогу ссылок на торрент-файлы, которые содержат только списки хеш-сумм

[Профиль] [ЛС]
Показать сообщения:    
Ответить на тему

Текущее время: Сегодня 20:38

Часовой пояс: GMT + 4



Вы не можете начинать темы
Вы не можете отвечать на сообщения
Вы не можете редактировать свои сообщения
Вы не можете удалять свои сообщения
Вы не можете голосовать в опросах
Вы не можете прикреплять файлы к сообщениям
Вы не можете скачивать файлы