Луна над Парадором / Moon Over Parador (Пол Мазурски / Paul Mazursky) [1988, США, комедия, мелодрама, WEB-DL 1080p] MVO + DVO + Sub Eng + Original Eng

Ответить на тему
 
Автор Сообщение

user ®

Стаж: 7 лет 7 месяцев

Сообщений: 20008

Пост Пост: #1 от 09-Янв-2016 22:48

[Цитировать]

Луна над Парадором / Moon Over Parador
Страна: США
Студия: Universal Pictures
Жанр: комедия, мелодрама
Год выпуска: 1988
Продолжительность: 01:43:43
Перевод 1: Профессиональный (многоголосый закадровый) R5
Перевод 2: Профессиональный (двухголосый закадровый) НТВ+
Cубтитры: английские
Оригинальная аудиодорожка: английский
Режиссер: Пол Мазурски / Paul Mazursky
В ролях: Ричард Дрейфусс, Рауль Хулиа, Соня Брага, Джонатан Уинтерс, Фернандо Рей, Майкл Грин, Полли Холлидей, Милтон Гонсалвис, Чаро, Марианна Зегебрехт, Рейнхард и др.
Описание: Среднестатистический нью-йоркский актер Джек Ноа волею судеб оказывается в диктаторском государстве Парадор, где ему предстоит сыграть самую главную роль в актерской карьере - партию самого президента и диктатора Альфонса Симмса. Ведь когда тот внезапно покидает сей бренный мир прямо накануне выборов, начальнику тайной полиции, хитроумному и властолюбивому Роберто Страусманну, ничего не остается, как режиссировать спектакль общенационального масштаба, в приказном порядке назначив на главную роль Джека! Но Роберто даже предположить не мог, что неожиданно для себя, Джек обнаружит в себе истинного лидера народа!
II Сэмпл II IMDB II
Доп. информация:
За русские дороги спасибо IVH
Тип релиза: WEB-DL 1080p
Контейнер: MKV
Видео: AVC / 1920x1036 / 1.85:1 / 23.976fps / Bit rate 5139Kbps
Аудио 1: AC3 / 48.0 KHz / 6ch. / 448kbps / rus / MVO / R5
Аудио 2: AC3 / 48.0 KHz / 2ch. / 192kbps / rus / DVO / НТВ+
Аудио 3: AAC-LC / 48.0 KHz / 2ch. / 196kbps / eng
Формат субтитров: softsub (SRT)
MediaInfo
Общее
Уникальный идентификатор : 206873871894779651344906929043640302476 (0x9BA2755D97846870BCE0CE83E4EA3B8C)
Полное имя : G:\!!!_torrent\Moon.Over.Parador.1988.WEB-DL.1080p_by_vedigo.mkv
Формат : Matroska
Версия формата : Version 4 / Version 2
Размер файла : 4,33 Гбайт
Продолжительность : 1 ч. 43 м.
Общий поток : 5974 Кбит/сек
Название фильма : Moon.Over.Parador.1988.WEB-DL.1080p_by_vedigo
Дата кодирования : UTC 2015-12-22 03:02:20
Программа кодирования : mkvmerge v8.6.1 ('Flying') 64bit
Библиотека кодирования : libebml v1.3.3 + libmatroska v1.4.4
Видео
Идентификатор : 1
Формат : AVC
Формат/Информация : Advanced Video Codec
Профиль формата : High@L4
Параметр CABAC формата : Да
Параметр ReFrames формата : 4 кадра
Идентификатор кодека : V_MPEG4/ISO/AVC
Продолжительность : 1 ч. 43 м.
Битрейт : 5139 Кбит/сек
Ширина : 1920 пикселей
Высота : 1036 пикселей
Соотношение сторон : 1,85:1
Режим частоты кадров : Постоянный
Частота кадров : 23,976 (23976/1000) кадра/сек
Цветовое пространство : YUV
Субдискретизация насыщенности : 4:2:0
Битовая глубина : 8 бит
Тип развёртки : Прогрессивная
Бит/(Пиксели*Кадры) : 0.108
Размер потока : 3,72 Гбайт (86%)
Заголовок : Moon.Over.Parador.1988.WEB-DL.1080p_by_vedigo
Default : Да
Forced : Нет
Цветовой диапазон : Limited
Основные цвета : BT.709
Характеристики трансфера : BT.709
Коэффициенты матрицы : BT.709
Аудио #1
Идентификатор : 2
Формат : AC-3
Формат/Информация : Audio Coding 3
Расширение режима : CM (complete main)
Параметр Endianness формата : Big
Идентификатор кодека : A_AC3
Продолжительность : 1 ч. 43 м.
Вид битрейта : Постоянный
Битрейт : 448 Кбит/сек
Каналы : 6 каналов
Расположение каналов : Front: L C R, Side: L R, LFE
Частота : 48,0 КГц
Частота кадров : 31,250 кадров/сек (1536 spf)
Метод сжатия : С потерями
Размер потока : 333 Мбайт (7%)
Заголовок : MVO
Язык : Russian
Default : Да
Forced : Нет
Аудио #2
Идентификатор : 3
Формат : AC-3
Формат/Информация : Audio Coding 3
Расширение режима : CM (complete main)
Параметр Endianness формата : Big
Идентификатор кодека : A_AC3
Продолжительность : 1 ч. 43 м.
Вид битрейта : Постоянный
Битрейт : 192 Кбит/сек
Каналы : 2 канала
Расположение каналов : Front: L R
Частота : 48,0 КГц
Частота кадров : 31,250 кадров/сек (1536 spf)
Метод сжатия : С потерями
Размер потока : 143 Мбайт (3%)
Заголовок : DVO
Язык : Russian
Default : Нет
Forced : Нет
Аудио #3
Идентификатор : 4
Формат : AAC
Формат/Информация : Advanced Audio Codec
Профиль формата : LC
Идентификатор кодека : A_AAC
Продолжительность : 1 ч. 43 м.
Битрейт : 196 Кбит/сек
Каналы : 2 канала
Расположение каналов : Front: L R
Частота : 48,0 КГц
Частота кадров : 46,875 кадров/сек (1024 spf)
Метод сжатия : С потерями
Размер потока : 146 Мбайт (3%)
Заголовок : original
Язык : English
Default : Нет
Forced : Нет
Текст
Идентификатор : 5
Формат : UTF-8
Идентификатор кодека : S_TEXT/UTF8
Идентификатор кодека/Информация : UTF-8 Plain Text
Продолжительность : 1 ч. 39 м.
Битрейт : 58 бит/сек
Count of elements : 1242
Размер потока : 42,4 Кбайт (0%)
Заголовок : subtitle eng
Язык : English
Default : Нет
Forced : Нет
Меню
00:00:00.000 : en:Never Forget (Main Titles)
00:04:24.000 : en:A Wonderful Actor
00:08:31.000 : en:Stick Around
00:14:56.000 : en:Defunct Dictator
00:21:33.000 : en:Chance of a Lifetime
00:29:43.000 : en:Bravo
00:34:12.000 : en:The Entourage
00:39:49.000 : en:Playing the Part
00:46:16.000 : en:We Have a Hit
00:54:20.000 : en:More Than Lovers
01:00:29.000 : en:Sweet Power
01:09:35.000 : en:Out with the Old
01:17:10.000 : en:Getting Too Real
01:22:20.000 : en:Loved by the People
01:25:53.000 : en:It’s Not Enough
01:29:49.000 : en:Goodbye, My People
01:35:08.000 : en:The Greatest Time
01:40:37.000 : en:End Titles
Скриншоты
Скачать

Скачать торрент!

Как скачивать? · Что такое торрент? · Рейтинг и ограничения

Сайт не распространяет и не хранит электронные версии произведений, а лишь предоставляет доступ к создаваемому пользователями каталогу ссылок на торрент-файлы, которые содержат только списки хеш-сумм

[Профиль] [ЛС]
Показать сообщения:    
Ответить на тему

Текущее время: Сегодня 16:07

Часовой пояс: GMT + 4



Вы не можете начинать темы
Вы не можете отвечать на сообщения
Вы не можете редактировать свои сообщения
Вы не можете удалять свои сообщения
Вы не можете голосовать в опросах
Вы не можете прикреплять файлы к сообщениям
Вы не можете скачивать файлы