Непутёвая учёба / Дурное воспитание / The Bad Education Movie (Эллиот Хегарти / Elliot Hegarty) [2015, Великобритания, комедия, BDRip 1080p] DVO (SNK-TV) + Original Eng + Sub Rus, Eng

Ответить на тему
 
Автор Сообщение

user ®

Стаж: 7 лет 7 месяцев

Сообщений: 20008

Пост Пост: #1 от 09-Янв-2016 22:48

[Цитировать]

Непутёвая учёба / Дурное Воспитание
The Bad Education Movie
- Год выпуска: 2015
Страна: Великобритания
Жанр: Комедия
Продолжительность: 01:30:42-Перевод: Любительский (двухголосый закадровый) - /SNK-TV/
Субтитры: Русские - [url=http://***/forum/profile.php?mode=viewprofile&u=21131053]М_Васильев[/url], Английские
Оригинальная аудиодорожка: английский-Режиссёр: Эллиот Хегарти / Elliot Hegarty
В ролях: Кае Александр, Мишель Гомес, Никки Рунэклс, Сара Солемани, Джек Бенс, Джэк Уайтхолл, Лейла Хоффман, Мэтью Хорн, Этан Лоуренс, Чарли Уэрнэм-Описание: Альфи Уикерс — самый ужасный учитель в истории человечества. Мало того, что он ничего не знает и ничему не учит, так еще и постоянно вляпывается в дурацкие истории и втягивает в них своих учеников. Они, впрочем, вполне достойны своего учителя. Редкостные оболтусы. Вот, отправились они на экскурсию в Корнуолл, но вместо осмотра достопримечательностей, веселая компания оказалась втянута в государственный переворот...-
Скачать сэмпл-[url=http://***/forum/tracker.php?nm=The%20bad%20education%20movie]Все раздачи[/url]-Качество: BDRip 1080p (The.Bad.Education.Movie.2015.1080p.BluRay.DTS.x264-CtrlHD)
Формат: MKV
Видео кодек: H264
Аудио кодек: AC3, DTS
Видео: MPEG4 Video (H264) 1920x1040 23.976fps 13.1 Mbps
Аудио Rus: Dolby AC3 48000Hz 6ch 640kbps
Аудио Eng: DTS 48000Hz 6ch 1536kbps-

Скриншот c названием фильма
-
Скриншоты
-
MediaInfo
General
Unique ID : 172847992778864771236340848028640823159 (0x82095000C966AA6A9B8813AC21974777)
Complete name : H:\Фильмы\BEM\The.Bad.Education.Movie.2015.1080p.BluRay.SNK-TV.mkv
Format : Matroska
Format version : Version 4 / Version 2
File size : 9.86 GiB
Duration : 1h 30mn
Overall bit rate : 15.6 Mbps
Movie name : The Bad Education Movie
Encoded date : UTC 2015-12-22 21:36:10
Writing application : mkvmerge v8.1.0 ('Psychedelic Postcard') 64bit
Writing library : libebml v1.3.1 + libmatroska v1.4.2
DURATION : 01:30:42.528000000
NUMBER_OF_FRAMES : 170079
NUMBER_OF_BYTES : 435402240
_STATISTICS_WRITING_APP : mkvmerge v8.1.0 ('Psychedelic Postcard') 64bit
_STATISTICS_WRITING_DATE_UTC : 2015-12-22 21:36:10
_STATISTICS_TAGS : BPS DURATION NUMBER_OF_FRAMES NUMBER_OF_BYTES
Video
ID : 1
Format : AVC
Format/Info : Advanced Video Codec
Format profile : High@L4.1
Format settings, CABAC : Yes
Format settings, ReFrames : 4 frames
Codec ID : V_MPEG4/ISO/AVC
Duration : 1h 30mn
Bit rate : 13.1 Mbps
Width : 1 920 pixels
Height : 1 040 pixels
Display aspect ratio : 1.85:1
Frame rate mode : Constant
Frame rate : 23.976 fps
Color space : YUV
Chroma subsampling : 4:2:0
Bit depth : 8 bits
Scan type : Progressive
Bits/(Pixel*Frame) : 0.274
Stream size : 8.30 GiB (84%)
Writing library : x264 core 148 r2638kMod 7599210
Encoding settings : cabac=1 / ref=4 / deblock=1:-3:-3 / analyse=0x3:0x133 / me=umh / subme=9 / psy=1 / fade_compensate=0.00 / psy_rd=0.95:0.00 / mixed_ref=1 / me_range=32 / chroma_me=1 / trellis=2 / 8x8dct=1 / cqm=0 / deadzone=21,11 / fast_pskip=0 / chroma_qp_offset=-2 / threads=6 / lookahead_threads=1 / sliced_threads=0 / nr=0 / decimate=0 / interlaced=0 / bluray_compat=0 / constrained_intra=0 / fgo=0 / bframes=8 / b_pyramid=2 / b_adapt=2 / b_bias=0 / direct=3 / weightb=1 / open_gop=0 / weightp=2 / keyint=250 / keyint_min=23 / scenecut=40 / intra_refresh=0 / rc=crf / mbtree=0 / crf=19.0000 / qcomp=0.60 / qpmin=0 / qpmax=69 / qpstep=4 / ip_ratio=1.40 / pb_ratio=1.20 / aq=3:0.85
Language : English
Default : Yes
Forced : No
DURATION : 01:30:42.980000000
NUMBER_OF_FRAMES : 130501
NUMBER_OF_BYTES : 9120867040
_STATISTICS_WRITING_APP : mkvmerge v8.1.0 ('Psychedelic Postcard') 64bit
_STATISTICS_WRITING_DATE_UTC : 2015-12-22 21:36:10
_STATISTICS_TAGS : BPS DURATION NUMBER_OF_FRAMES NUMBER_OF_BYTES
Audio #1
ID : 2
Format : AC-3
Format/Info : Audio Coding 3
Mode extension : CM (complete main)
Format settings, Endianness : Big
Codec ID : A_AC3
Duration : 1h 30mn
Bit rate mode : Constant
Bit rate : 640 Kbps
Channel(s) : 6 channels
Channel positions : Front: L C R, Side: L R, LFE
Sampling rate : 48.0 KHz
Compression mode : Lossy
Stream size : 415 MiB (4%)
Title : Rus (SNK-TV)
Language : Russian
Default : Yes
Forced : No
Audio #2
ID : 3
Format : DTS
Format/Info : Digital Theater Systems
Mode : 16
Format settings, Endianness : Big
Codec ID : A_DTS
Duration : 1h 30mn
Bit rate mode : Constant
Bit rate : 1 509 Kbps
Channel(s) : 6 channels
Channel positions : Front: L C R, Side: L R, LFE
Sampling rate : 48.0 KHz
Bit depth : 24 bits
Compression mode : Lossy
Stream size : 979 MiB (10%)
Title : Eng
Language : English
Default : No
Forced : No
Text #1
ID : 4
Format : UTF-8
Codec ID : S_TEXT/UTF8
Codec ID/Info : UTF-8 Plain Text
Title : Rus
Language : Russian
Default : No
Forced : No
Text #2
ID : 5
Format : UTF-8
Codec ID : S_TEXT/UTF8
Codec ID/Info : UTF-8 Plain Text
Title : Eng
Language : English
Default : No
Forced : No
Text #3
ID : 6
Format : UTF-8
Codec ID : S_TEXT/UTF8
Codec ID/Info : UTF-8 Plain Text
Title : SDH
Language : English
Default : No
Forced : No
Menu
00:00:00.000 : en:00:00:00.000
00:08:28.675 : en:00:08:28.675
00:12:52.730 : en:00:12:52.730
00:20:54.503 : en:00:20:54.503
00:29:13.835 : en:00:29:13.835
00:39:00.588 : en:00:39:00.588
00:46:34.041 : en:00:46:34.041
00:53:46.932 : en:00:53:46.932
01:01:53.960 : en:01:01:53.960
01:10:37.525 : en:01:10:37.525
01:16:39.136 : en:01:16:39.136
01:22:29.236 : en:01:22:29.236

-
О релизе
Перевод: Михаил Васильев
Редакция и озвучка: SNK-TV-Картина содержит сцены с грубым, а местами жестоким юмором. (а местами пошлым)
Фильм основан на одноименном сериале, который выходил на канале ВВС с 2012 по 2014 год.-За исходник спасибо kozzloh`у.
-[url=http://***/forum/viewtopic.php?t=5137579]BDRip 720p[/url] | [url=http://***/forum/viewtopic.php?t=5137627]DVDRip[/url]
[url=http://***/forum/viewtopic.php?t=4234777]Сезон 1[/url] | [url=http://***/forum/viewtopic.php?t=5026972]Сезон 2[/url] | [url=http://***/forum/viewtopic.php?t=5043459]Сезон 3[/url]
Скачать

Скачать торрент!

Как скачивать? · Что такое торрент? · Рейтинг и ограничения

Сайт не распространяет и не хранит электронные версии произведений, а лишь предоставляет доступ к создаваемому пользователями каталогу ссылок на торрент-файлы, которые содержат только списки хеш-сумм

[Профиль] [ЛС]
Показать сообщения:    
Ответить на тему

Текущее время: Сегодня 19:59

Часовой пояс: GMT + 4



Вы не можете начинать темы
Вы не можете отвечать на сообщения
Вы не можете редактировать свои сообщения
Вы не можете удалять свои сообщения
Вы не можете голосовать в опросах
Вы не можете прикреплять файлы к сообщениям
Вы не можете скачивать файлы