Клад / Дыры / Holes (Эндрю Дэвис / Andrew Davis) [2003, США, комедия, приключения, семейный, WEB-DL 1080p] Dub (Невафильм) + DVO + Sub Rus, Eng + Original Eng

Ответить на тему
 
Автор Сообщение

user ®

Стаж: 7 лет 7 месяцев

Сообщений: 20008

Пост Пост: #1 от 09-Янв-2016 22:48

[Цитировать]

Клад / Дыры / Holes
Страна: США
Жанр: комедия, приключения, семейный
Год выпуска: 2003
Продолжительность: 01:57:25
Перевод 1: Профессиональный (дублированный) Невафильм
Перевод 2: Профессиональный (двухголосый закадровый)
Cубтитры: русские, английские
Оригинальная аудиодорожка: английский
Режиссер: Эндрю Дэвис / Andrew Davis
В ролях: Сигурни Уивер, Джон Войт, Тим Блейк Нельсон, Шайа ЛаБаф, Джэйк М. Смит, Байрон Коттон, Хлео Томас, Бренден Джеффресон, Мигель Кастро, Макс Кэш...
Описание: На семье подростка по имени Стенли Илнетс лежит древнее проклятие. Все его предки по мужской линии были обречены попадать в самые невероятные жизненные переделки. Вот и Стенли получает срок в исправительном трудовом лагере «Зелёное озеро» за преступление, которое он не совершал. Администрация лагеря в лице хищной начальницы и жестокого старшего надзирателя заставляет своих подопечных ежедневно копать в пустыне странные ямы, называя это «трудовой терапией». Никто из этих ребят не знает, зачем на самом деле они роют все эти ямы…
Доп. информация: На замену [url=http://***/forum/viewtopic.php?t=4764381]http://***/forum/viewtopic.php?t=4764381[/url] В раздаче загублен звук, у всех дорожек срез спектра на уровне на уровне 18 кГц, оригинальная дорожка дутая. Сэмплы для сравнения http://multi-up.com/1080610
Сэмпл: http://multi-up.com/1080608
Тип релиза: WEB-DL 1080p
Контейнер: MKV
Видео: 1920x1036 (1.853), 23.976 fps, AVC, ~5168 Kbps, 0.108 bits/pixel
Аудио 1: Russian, 48.0 KHz, AC3, 6 ch, 448 Kbps - Невафильм
Аудио 2: Russian, 48.0 KHz, AC3, 6 ch, 448 Kbps
Аудио 3: English, 48.0 KHz, AC3, 6 ch, 448 Kbps

MediaInfo
General
Unique ID : 173437821428603227984139201740483007328 (0x827AE8CCFCD6A5C5BD5EE3EE00DB1360)
Complete name : C:\Holes. WEB-DL 1080p.mkv
Format : Matroska
Format version : Version 4 / Version 2
File size : 5.45 GiB
Duration : 1h 57mn
Overall bit rate : 6 644 Kbps
Encoded date : UTC 2015-12-17 20:04:47
Writing application : mkvmerge v8.6.1 ('Flying') 64bit
Writing library : libebml v1.3.3 + libmatroska v1.4.4
DURATION : 01:56:46.979000000
NUMBER_OF_FRAMES : 2250
NUMBER_OF_BYTES : 67001
_STATISTICS_WRITING_APP : mkvmerge v8.6.1 ('Flying') 64bit
_STATISTICS_WRITING_DATE_UT : 2015-12-17 20:04:47
_STATISTICS_TAGS : BPS DURATION NUMBER_OF_FRAMES NUMBER_OF_BYTES
Video
ID : 1
Format : AVC
Format/Info : Advanced Video Codec
Format profile : High@L4
Format settings, CABAC : Yes
Format settings, ReFrames : 4 frames
Codec ID : V_MPEG4/ISO/AVC
Duration : 1h 57mn
Bit rate : 5 168 Kbps
Width : 1 920 pixels
Height : 1 036 pixels
Display aspect ratio : 1.85:1
Frame rate mode : Constant
Frame rate : 23.976 fps
Color space : YUV
Chroma subsampling : 4:2:0
Bit depth : 8 bits
Scan type : Progressive
Bits/(Pixel*Frame) : 0.108
Stream size : 4.24 GiB (78%)
Language : English
Default : Yes
Forced : No
Color range : Limited
Color primaries : BT.709
Transfer characteristics : BT.709
Matrix coefficients : BT.709
Audio #1
ID : 2
Format : AC-3
Format/Info : Audio Coding 3
Mode extension : CM (complete main)
Format settings, Endianness : Big
Codec ID : A_AC3
Duration : 1h 57mn
Bit rate mode : Constant
Bit rate : 448 Kbps
Channel(s) : 6 channels
Channel positions : Front: L C R, Side: L R, LFE
Sampling rate : 48.0 KHz
Compression mode : Lossy
Stream size : 376 MiB (7%)
Title : Невафильм
Language : Russian
Default : Yes
Forced : No
Audio #2
ID : 3
Format : AC-3
Format/Info : Audio Coding 3
Mode extension : CM (complete main)
Format settings, Endianness : Big
Codec ID : A_AC3
Duration : 1h 57mn
Bit rate mode : Constant
Bit rate : 448 Kbps
Channel(s) : 6 channels
Channel positions : Front: L C R, Side: L R, LFE
Sampling rate : 48.0 KHz
Compression mode : Lossy
Stream size : 376 MiB (7%)
Language : Russian
Default : No
Forced : No
Audio #3
ID : 4
Format : AC-3
Format/Info : Audio Coding 3
Mode extension : CM (complete main)
Format settings, Endianness : Big
Codec ID : A_AC3
Duration : 1h 57mn
Bit rate mode : Constant
Bit rate : 448 Kbps
Channel(s) : 6 channels
Channel positions : Front: L C R, Side: L R, LFE
Sampling rate : 48.0 KHz
Compression mode : Lossy
Stream size : 376 MiB (7%)
Language : English
Default : No
Forced : No
Text #1
ID : 5
Format : UTF-8
Codec ID : S_TEXT/UTF8
Codec ID/Info : UTF-8 Plain Text
Language : Russian
Default : No
Forced : No
Text #2
ID : 6
Format : UTF-8
Codec ID : S_TEXT/UTF8
Codec ID/Info : UTF-8 Plain Text
Language : English
Default : No
Forced : No
Menu
00:00:00.000 : en:Opening Credits/The Family Curse
00:05:14.000 : en:Welcome To Camp Green Lake
00:10:07.000 : en:Boys Of D-Tent
00:14:06.000 : en:The Legend Of Kissin' Kate Barlow
00:16:05.000 : en:Digging The First Hole
00:18:43.000 : en:Stanley Yelnats The First
00:24:14.000 : en:Yellow Spotted Lizards
00:26:33.000 : en:A Letter To Mom
00:28:07.000 : en:Onion Sam And Miss Katherine
00:31:06.000 : en:Don't Mess With Caveman
00:37:27.000 : en:Finding Something Special
00:43:53.000 : en:The Deal
00:52:40.000 : en:Miss Katherine's Revenge
00:53:57.000 : en:Mr. Sir's Sunflower Seeds
00:56:40.000 : en:The Warden's Recipe
00:59:26.000 : en:Stanley Teaches Zero To Read
01:10:48.000 : en:Zero Runs Away
01:14:10.000 : en:Stanley Goes After Zero
01:21:21.000 : en:Stanley And Zero Climb "God's Thumb"
01:28:01.000 : en:A Cure For Stinky Feet
01:29:10.000 : en:Zero Confesses
01:33:46.000 : en:Kissin' Kate's Last Stand
01:36:21.000 : en:One More Hole
01:47:46.000 : en:Opening The Chest/End Credits
Скриншоты
Скачать

Скачать торрент!

Как скачивать? · Что такое торрент? · Рейтинг и ограничения

Сайт не распространяет и не хранит электронные версии произведений, а лишь предоставляет доступ к создаваемому пользователями каталогу ссылок на торрент-файлы, которые содержат только списки хеш-сумм

[Профиль] [ЛС]
Показать сообщения:    
Ответить на тему

Текущее время: Сегодня 11:40

Часовой пояс: GMT + 4



Вы не можете начинать темы
Вы не можете отвечать на сообщения
Вы не можете редактировать свои сообщения
Вы не можете удалять свои сообщения
Вы не можете голосовать в опросах
Вы не можете прикреплять файлы к сообщениям
Вы не можете скачивать файлы