Хранитель Луны / Mune, le gardien de la lune (Александр Эбоян / Alexandre Heboyan, Бенуа Филиппон / Benoit Philippon) [2014, Франция, мультфильм, BDRip-AVC] DUB

Ответить на тему
 
Автор Сообщение

user ®

Стаж: 13 лет

Сообщений: 15041

Пост Пост: #1 от 09-Янв-2016 13:30

[Цитировать]

Хранитель Луны
Mune, le gardien de la lune
«Он не спасет мир. Он спасет пять миров!»
- Страна: Франция
Жанр: мультфильм
Продолжительность: 01:21:27
Год выпуска: 2014
Перевод: Профессиональный (дублированный)
субтитры: отсутствуют-Режиссёр: Александр Эбоян / Alexandre Heboyan, Бенуа Филиппон / Benoît Philippon
Роли озвучивали: Омар Си, Изиа Ижлен, Майкл Грегорио, Шафик Ахмад, Бенуа Аллемане, Шеннон Арчи, Федор Аткин, Джошуа Дж. Баллард, Дэмиен Буассо, Эммануэль Кюртиль-Роли дублировали: Александр Ревва, Наталия Медведева, Василий Буткевич, Алексей Багдасаров, Илья Барабанов- -ОписаниеНа диковинной планете, где смена дня и ночи осуществляется вручную, юного фавна Мьюна неожиданно избирают хранителем Луны. Но к своему ужасу, он почти сразу теряет ее! Воспользовавшись этим, царь подземного мира Некрос крадет и гасит Солнце. Теперь, чтобы спасти планету, Мьюн вместе с отважной девочкой из воска Глим и заносчивым Сохоном, хранителем Солнца, должны отправиться в удивительное и опасное путешествие.-Релиз:

Качество: BDRip-AVC [url=http://***/forum/viewtopic.php?t=5145318]Blu-ray Disc 1080i[/url] -Azureus-
Формат: MKV
Видео: AVC 2215 Kbps 1136 x 476 (2.387) 25.000 fps
Аудио 1: Russian Dolby Digital Audio 448 kbps 5.1 / 48 kHz
MI | Log
Log
x264 [info]: frame I:961 Avg QP:12.15 size: 87167
x264 [info]: frame P:28305 Avg QP:14.14 size: 23591
x264 [info]: frame B:92909 Avg QP:16.78 size: 6380
x264 [info]: consecutive B-frames: 2.6% 2.8% 9.5% 29.9% 15.1% 30.8% 4.2% 1.7% 1.0% 0.5% 0.4% 0.7% 0.7%
x264 [info]: mb I I16..4: 12.0% 59.0% 29.0%
x264 [info]: mb P I16..4: 2.1% 10.0% 2.5% P16..4: 27.1% 27.2% 11.9% 2.6% 0.4% skip:16.2%
x264 [info]: mb B I16..4: 0.4% 1.0% 0.2% B16..8: 26.2% 16.4% 3.1% direct: 4.2% skip:48.5% L0:41.7% L1:45.5% BI:12.8%
x264 [info]: 8x8 transform intra:65.1% inter:46.8%
x264 [info]: direct mvs spatial:100.0% temporal:0.0%
x264 [info]: coded y,uvDC,uvAC intra: 71.0% 86.0% 79.5% inter: 13.4% 19.9% 11.8%
x264 [info]: i16 v,h,dc,p: 42% 21% 5% 32%
x264 [info]: i8 v,h,dc,ddl,ddr,vr,hd,vl,hu: 10% 12% 15% 8% 10% 10% 11% 10% 14%
x264 [info]: i4 v,h,dc,ddl,ddr,vr,hd,vl,hu: 11% 13% 17% 7% 12% 10% 11% 8% 11%
x264 [info]: i8c dc,h,v,p: 40% 32% 15% 14%
x264 [info]: Weighted P-Frames: Y:4.4% UV:2.8%
x264 [info]: ref P L0: 52.0% 6.4% 17.1% 6.2% 4.7% 3.6% 3.1% 1.8% 1.6% 1.6% 1.6% 0.3% 0.0%
x264 [info]: ref B L0: 72.6% 11.9% 5.6% 2.8% 2.0% 1.8% 1.4% 0.9% 0.6% 0.4%
x264 [info]: ref B L1: 91.9% 8.1%
x264 [info]: kb/s:2200.53
x264 [total]: encoded 122175 frames, 11.65 fps, 2200.53 kb/s, duration 2:54:47.59
Format : Matroska
Format version : Version 4 / Version 2
File size : 1.51 GiB
Duration : 1h 21mn
Overall bit rate : 2 650 Kbps
Encoded date : UTC 2016-01-09 04:51:56
Writing application : mkvmerge v6.7.0 ('Back to the Ground') 32bit built on Jan 8 2014 15:03:17
Writing library : libebml v1.3.0 + libmatroska v1.4.1
Video
ID : 1
Format : AVC
Format/Info : Advanced Video Codec
Format profile : High@L4.1
Format settings, CABAC : Yes
Format settings, ReFrames : 11 frames
Codec ID : V_MPEG4/ISO/AVC
Duration : 1h 21mn
Bit rate : 2 150 Kbps
Width : 1 136 pixels
Height : 476 pixels
Display aspect ratio : 2.40:1
Frame rate mode : Constant
Frame rate : 25.000 fps
Color space : YUV
Chroma subsampling : 4:2:0
Bit depth : 8 bits
Scan type : Progressive
Bits/(Pixel*Frame) : 0.159
Stream size : 1.22 GiB (81%)
Title : Mune, le gardien de la lune (2014) [***]
Writing library : x264 core 148 r2638kMod 7599210
Encoding settings : cabac=1 / ref=11 / deblock=1:-2:-2 / analyse=0x3:0x133 / me=umh / subme=11 / psy=1 / fade_compensate=0.00 / psy_rd=1.00:0.05 / mixed_ref=1 / me_range=48 / chroma_me=1 / trellis=2 / 8x8dct=1 / cqm=0 / deadzone=21,11 / fast_pskip=0 / chroma_qp_offset=-3 / threads=12 / lookahead_threads=3 / sliced_threads=0 / nr=0 / decimate=1 / interlaced=0 / bluray_compat=0 / constrained_intra=0 / fgo=0 / bframes=12 / b_pyramid=2 / b_adapt=2 / b_bias=0 / direct=3 / weightb=1 / open_gop=0 / weightp=2 / keyint=250 / keyint_min=25 / scenecut=40 / intra_refresh=0 / rc_lookahead=60 / rc=crf / mbtree=0 / crf=17.0000 / qcomp=0.60 / qpmin=0 / qpmax=69 / qpstep=4 / vbv_maxrate=50000 / vbv_bufsize=62500 / crf_max=0.0 / nal_hrd=none / filler=0 / ip_ratio=1.40 / pb_ratio=1.30 / aq=3:0.90
Language : French
Default : Yes
Forced : No
Audio
ID : 2
Format : AC-3
Format/Info : Audio Coding 3
Mode extension : CM (complete main)
Format settings, Endianness : Big
Codec ID : A_AC3
Duration : 1h 21mn
Bit rate mode : Constant
Bit rate : 448 Kbps
Channel(s) : 6 channels
Channel positions : Front: L C R, Side: L R, LFE
Sampling rate : 48.0 KHz
Compression mode : Lossy
Stream size : 261 MiB (17%)
Title : DUB
Language : Russian
Default : Yes
Forced : No
Menu
00:00:00.000 : en:00:00:00.000
00:05:54.160 : en:00:05:54.160
00:13:02.640 : en:00:13:02.640
00:17:54.560 : en:00:17:54.560
00:24:42.000 : en:00:24:42.000
00:30:02.960 : en:00:30:02.960
00:34:33.560 : en:00:34:33.560
00:42:25.960 : en:00:42:25.960
00:47:45.000 : en:00:47:45.000
00:53:42.760 : en:00:53:42.760
01:00:16.640 : en:01:00:16.640
01:09:48.000 : en:01:09:48.000
Скриншоты
Скачать

Скачать торрент! Хранитель Луны / Mune, le gardien de la lune (Александр Эбоян / Alexandre Heboyan, Бенуа Филиппон / Benoit Philippon) [2014, Франция, мультфильм, BDRip-AVC] DUB

Как скачивать? · Что такое торрент? · Рейтинг и ограничения

Сайт не распространяет и не хранит электронные версии произведений, а лишь предоставляет доступ к создаваемому пользователями каталогу ссылок на торрент-файлы, которые содержат только списки хеш-сумм

[Профиль] [ЛС]
Показать сообщения:    
Ответить на тему

Текущее время: Сегодня 03:49

Часовой пояс: GMT + 4



Вы не можете начинать темы
Вы не можете отвечать на сообщения
Вы не можете редактировать свои сообщения
Вы не можете удалять свои сообщения
Вы не можете голосовать в опросах
Вы не можете прикреплять файлы к сообщениям
Вы не можете скачивать файлы