Любовь с первого взгляда (Резо Эсадзе) [1975, комедия, мелодрама, DVB]

Ответить на тему
 
Автор Сообщение

user ®

Стаж: 7 лет 7 месяцев

Сообщений: 20008

Пост Пост: #1 от 08-Янв-2016 15:51

[Цитировать]

Любовь с первого взгляда
Жанр: комедия, мелодрама
Год выпуска: 1975, 1988
Продолжительность: 01:25:00
Режиссёр: Резо Эсадзе
В ролях: Вахтанг Панчулидзе, Наталья Юриздицкая, Рамаз Чхиквадзе, Кахи Кавсадзе, Саломе Канчели, Насиба Зейналова, Бухути Закариадзе, Владимир Татосов, Владимир Новиков, Валида Хизроева, Шариф Кабулов, Олег Хроменков, Валерий Носик, Бадри Бегалишвили, Зураб Капианидзе, Тамара Схиртладзе
Описание: О первой любви девятиклассника Мурада Расулова, страстного любителя футбола, к девушке, которая старше его на два года. Это, казалось бы, незначительное обстоятельство и обычаи семьи юноши становятся серьезным, но недолгим препятствием на пути молодых...
Качество видео: DVB
Формат видео: MPG
Видео: MPEG2, 720x576, 4:3, 25.00fps, 3343 Kbps
Аудио: MP2 2.0, 48 kHz, 192 kbps
Сравнение
[url=http://***/forum/viewtopic.php?t=348862]http://***/forum/viewtopic.php?t=348862[/url]
http://screenshotcomparison.com/comparison/157292/
MediaInfo
General
Complete name : Любовь с первого взгляда (1975) DVB.mpg
Format : MPEG-PS
File size : 2.14 GiB
Duration : 1h 25mn
Overall bit rate mode : Variable
Overall bit rate : 3 606 Kbps
Video
ID : 224 (0xE0)
Format : MPEG Video
Format version : Version 2
Format profile : Main@Main
Format settings, BVOP : Yes
Format settings, Matrix : Custom
Format settings, GOP : Variable
Format settings, picture structure : Frame
Duration : 1h 25mn
Bit rate mode : Variable
Bit rate : 3 343 Kbps
Maximum bit rate : 15.0 Mbps
Width : 720 pixels
Height : 576 pixels
Display aspect ratio : 4:3
Frame rate : 25.000 fps
Standard : PAL
Color space : YUV
Chroma subsampling : 4:2:0
Bit depth : 8 bits
Scan type : Interlaced
Scan order : Top Field First
Compression mode : Lossy
Bits/(Pixel*Frame) : 0.322
Time code of first frame : 00:00:00:00
Time code source : Group of pictures header
GOP, Open/Closed : Open
Stream size : 1.98 GiB (93%)
Audio
ID : 192 (0xC0)
Format : MPEG Audio
Format version : Version 1
Format profile : Layer 2
Duration : 1h 25mn
Bit rate mode : Constant
Bit rate : 192 Kbps
Channel(s) : 2 channels
Sampling rate : 48.0 KHz
Compression mode : Lossy
Delay relative to video : 4ms
Stream size : 117 MiB (5%)
Скриншоты
Скачать

Скачать торрент!

Как скачивать? · Что такое торрент? · Рейтинг и ограничения

Сайт не распространяет и не хранит электронные версии произведений, а лишь предоставляет доступ к создаваемому пользователями каталогу ссылок на торрент-файлы, которые содержат только списки хеш-сумм

[Профиль] [ЛС]
Показать сообщения:    
Ответить на тему

Текущее время: Сегодня 17:43

Часовой пояс: GMT + 4



Вы не можете начинать темы
Вы не можете отвечать на сообщения
Вы не можете редактировать свои сообщения
Вы не можете удалять свои сообщения
Вы не можете голосовать в опросах
Вы не можете прикреплять файлы к сообщениям
Вы не можете скачивать файлы