Без сына не приходи! (Радомир Василевский) [1986, лирическая комедия, DVB]

Ответить на тему
 
Автор Сообщение

user ®

Стаж: 7 лет 7 месяцев

Сообщений: 20008

Пост Пост: #1 от 08-Янв-2016 15:51

[Цитировать]

Без сына не приходи!
Жанр: комедия, семейное кино
Год выпуска: 1986
Продолжительность: 01:19:50
Режиссёр: Радомир Василевский
В ролях: Петр Юрченков младший, Александр Берда, Наталья Сайко, Андрей Соловей, Наталья Горленко, Владимир Носик, Владимир Басов младший, Ирина Шмелёва, Ирина Гошева, Сергей Иванов, Юрий Авшаров, Николай Олейник
Описание: Двенадцатилетний Коля, случайно узнав, что его отца сослуживцы считают оболтусом и бездельником, занялся его перевоспитанием. Достигнув в первом педагогическом опыте больших успехов, Коля берет на себя заботу о матери друга - и весьма счастливо устраивает ее судьбу...
Качество видео: DVB
Формат видео: MPG
Видео: MPEG2, 720x576, 4:3, 25.00fps, 2000 Kbps
Аудио: MP2 2.0, 48 kHz, 192 kbps
Сравнение
[url=http://***/forum/viewtopic.php?t=1638395]http://***/forum/viewtopic.php?t=1638395[/url]
http://screenshotcomparison.com/comparison/157303
MediaInfo
General
Complete name : Без сына не приходи (1986) DVB.mpg
Format : MPEG-PS
File size : 1.25 GiB
Duration : 1h 19mn
Overall bit rate mode : Variable
Overall bit rate : 2 236 Kbps
Video
ID : 224 (0xE0)
Format : MPEG Video
Format version : Version 2
Format profile : Main@Main
Format settings, BVOP : Yes
Format settings, Matrix : Custom
Format settings, GOP : Variable
Format settings, picture structure : Frame
Duration : 1h 19mn
Bit rate mode : Variable
Bit rate : 2 000 Kbps
Maximum bit rate : 15.0 Mbps
Width : 720 pixels
Height : 576 pixels
Display aspect ratio : 4:3
Frame rate : 25.000 fps
Standard : PAL
Color space : YUV
Chroma subsampling : 4:2:0
Bit depth : 8 bits
Scan type : Interlaced
Scan order : Top Field First
Compression mode : Lossy
Bits/(Pixel*Frame) : 0.193
Time code of first frame : 00:00:00:00
Time code source : Group of pictures header
GOP, Open/Closed : Open
Stream size : 1.12 GiB (89%)
Audio
ID : 192 (0xC0)
Format : MPEG Audio
Format version : Version 1
Format profile : Layer 2
Duration : 1h 19mn
Bit rate mode : Constant
Bit rate : 192 Kbps
Channel(s) : 2 channels
Sampling rate : 48.0 KHz
Compression mode : Lossy
Delay relative to video : 16ms
Stream size : 110 MiB (9%)
Скриншоты
Скачать

Скачать торрент!

Как скачивать? · Что такое торрент? · Рейтинг и ограничения

Сайт не распространяет и не хранит электронные версии произведений, а лишь предоставляет доступ к создаваемому пользователями каталогу ссылок на торрент-файлы, которые содержат только списки хеш-сумм

[Профиль] [ЛС]
Показать сообщения:    
Ответить на тему

Текущее время: Сегодня 07:58

Часовой пояс: GMT + 4



Вы не можете начинать темы
Вы не можете отвечать на сообщения
Вы не можете редактировать свои сообщения
Вы не можете удалять свои сообщения
Вы не можете голосовать в опросах
Вы не можете прикреплять файлы к сообщениям
Вы не можете скачивать файлы