Последняя Сказка Риты (Рената Литвинова) [2012, фэнтези, драма, детектив, WEB-DLRip]

Ответить на тему
 
Автор Сообщение

user ®

Стаж: 7 лет 7 месяцев

Сообщений: 20008

Пост Пост: #1 от 08-Янв-2016 15:51

[Цитировать]

Последняя Сказка Риты
Год выпуска: 2012
Жанр: фэнтези, драма, детектив
Продолжительность: 01:41:06.921 (145606 frames)
Субтитры: нет
Режиссер: Рената Литвинова
В ролях: Митя Борисов, Лев Данилкин, Сергей Дебижев, Татьяна Друбич, Альбина Евтушевская, Алиса Хазанова, Николай Хомерики, Ольга Кузина, Рената Литвинова, Ольга Попова
Описание: Основа сюжета – осмысление любви тремя главными героинями. Персонаж Татьяны Друбич внезапно понимает, что прожил всю жизнь с ненавистным ей человеком, героиня Ольги Кузиной навсегда влюблена в своего мужа, который этого не замечает. Рената Литвинова сыграла женщину в постоянном поиске. Сценарист и режиссер фильма Рената Литвинова принципиально не брала коммерческих партнеров на проект – картина снималась на ее деньги. Композитором фильма стала Земфира. Первоначальное название картины «Нас было три подруги». Литвинова подобрала весь творческий персонал для съемок без опыта работы, гримеров, операторов и дизайнеров по костюмам.
Качество: WEB-DLRip
Формат: AVI
Видео кодек: XviD
Аудио кодек: МР3
Видео: 688x384 (1.79:1), 24.000 fps, XviD build 73 ~892 kbps avg, 0.14 bit/pixel
Аудио: 48 kHz, MPEG Layer 3, 2 ch, ~128.00 kbps avg
Скриншоты Медиаинфо
F:\004 Мои раздачи\Последняя сказка Риты 745\poslednyaya_skazka_rity_745_[torrents.ru]_by_bm11.avi
General
Complete name : F:\004 Мои раздачи\Последняя сказка Риты 745\poslednyaya_skazka_rity_745_[torrents.ru]_by_bm11.avi
Format : AVI
Format/Info : Audio Video Interleave
File size : 745 MiB
Duration : 1h 41mn
Overall bit rate : 1 030 Kbps
Director : bm11
Writing application : VirtualDubMod 1.5.10.3 | www.virtualdub-fr.org || (build 2550/release)
Video
Format : MPEG-4 Visual
Format profile : Streaming Video@L1
Format settings, BVOP : Yes
Format settings, QPel : No
Format settings, GMC : No warppoints
Format settings, Matrix : Custom
Codec ID : XVID
Codec ID/Hint : XviD
Duration : 1h 41mn
Bit rate : 893 Kbps
Width : 688 pixels
Height : 384 pixels
Display aspect ratio : 16/9
Frame rate : 24.000 fps
Original frame rate : 24.005 fps
Resolution : 24 bits
Colorimetry : 4:2:0
Scan type : Progressive
Bits/(Pixel*Frame) : 0.141
Stream size : 646 MiB (87%)
Writing library : XviD 73
Audio
Format : MPEG Audio
Format version : Version 1
Format profile : Layer 3
Codec ID : 55
Codec ID/Hint : MP3
Duration : 1h 41mn
Bit rate mode : Constant
Bit rate : 128 Kbps
Minimum bit rate : 128 Kbps
Channel(s) : 2 channels
Sampling rate : 48.0 KHz
Resolution : 16 bits
Stream size : 92.6 MiB (12%)
Alignment : Aligned on interleaves
Interleave, duration : 42 ms (1.00 video frame)
Interleave, preload duration : 504 ms
Writing library : LAME3.99r
Encoding settings : CBR
Исходник
_Poslednyaya.Skazka.Riti.2012.720p.WEB-DL.Rus.HDCLUB
Семпл
Скачать

Скачать торрент!

Как скачивать? · Что такое торрент? · Рейтинг и ограничения

Сайт не распространяет и не хранит электронные версии произведений, а лишь предоставляет доступ к создаваемому пользователями каталогу ссылок на торрент-файлы, которые содержат только списки хеш-сумм

[Профиль] [ЛС]
Показать сообщения:    
Ответить на тему

Текущее время: Сегодня 14:48

Часовой пояс: GMT + 4



Вы не можете начинать темы
Вы не можете отвечать на сообщения
Вы не можете редактировать свои сообщения
Вы не можете удалять свои сообщения
Вы не можете голосовать в опросах
Вы не можете прикреплять файлы к сообщениям
Вы не можете скачивать файлы