Включите северное сияние (Радомир Василевский) [1972, детский, DVB]

Ответить на тему
 
Автор Сообщение

user ®

Стаж: 7 лет 7 месяцев

Сообщений: 20008

Пост Пост: #1 от 08-Янв-2016 15:51

[Цитировать]

Включите северное сияние
Жанр: детский
Год выпуска: 1972
Продолжительность: 01:15:53
Режиссёр: Радомир Василевский
В ролях: Ольга Казакова, Костя Леневский, Игорь Меркулов, Елена Легурова, Евгений Леонов-Гладышев, Т. Пегова, Люсьена Овчинникова, Константин Степанков, Валерий Рыжаков, Иван Рыжов, Таисия Котеничева, Ольга Матешко, Пётр Соболевский, Георгий Милляр, Валентина Телегина, Миша Шунин
Описание: Коля Чимбарцев приехал из Одессы в северный порт Красин, чтобы жить и учиться в школе-интернате. Отец, находящийся на гидропосту, не смог встретить сына.
Качество видео: DVB
Формат видео: MPG
Видео: MPEG2, 720x576, 4:3, 25.00fps, 2911 Kbps
Аудио: MP2 2.0, 48 kHz, 192 kbps
Сравнение
[url=http://***/forum/viewtopic.php?t=4743568]http://***/forum/viewtopic.php?t=4743568[/url]
http://screenshotcomparison.com/comparison/157307/
MediaInfo
General
Complete name : Включите северное сияние (1972) DVB.mpg
Format : MPEG-PS
File size : 1.68 GiB
Duration : 1h 15mn
Overall bit rate mode : Variable
Overall bit rate : 3 166 Kbps
Video
ID : 224 (0xE0)
Format : MPEG Video
Format version : Version 2
Format profile : Main@Main
Format settings, BVOP : Yes
Format settings, Matrix : Custom
Format settings, GOP : Variable
Format settings, picture structure : Frame
Duration : 1h 15mn
Bit rate mode : Variable
Bit rate : 2 911 Kbps
Maximum bit rate : 15.0 Mbps
Width : 720 pixels
Height : 576 pixels
Display aspect ratio : 4:3
Frame rate : 25.000 fps
Standard : PAL
Color space : YUV
Chroma subsampling : 4:2:0
Bit depth : 8 bits
Scan type : Interlaced
Scan order : Top Field First
Compression mode : Lossy
Bits/(Pixel*Frame) : 0.281
Time code of first frame : 00:00:00:00
Time code source : Group of pictures header
GOP, Open/Closed : Open
Stream size : 1.54 GiB (92%)
GOP, Open/Closed of first frame : Closed
Audio
ID : 192 (0xC0)
Format : MPEG Audio
Format version : Version 1
Format profile : Layer 2
Duration : 1h 15mn
Bit rate mode : Constant
Bit rate : 192 Kbps
Channel(s) : 2 channels
Sampling rate : 48.0 KHz
Compression mode : Lossy
Stream size : 104 MiB (6%)
Скриншоты
Скачать

Скачать торрент!

Как скачивать? · Что такое торрент? · Рейтинг и ограничения

Сайт не распространяет и не хранит электронные версии произведений, а лишь предоставляет доступ к создаваемому пользователями каталогу ссылок на торрент-файлы, которые содержат только списки хеш-сумм

[Профиль] [ЛС]
Показать сообщения:    
Ответить на тему

Текущее время: Сегодня 20:06

Часовой пояс: GMT + 4



Вы не можете начинать темы
Вы не можете отвечать на сообщения
Вы не можете редактировать свои сообщения
Вы не можете удалять свои сообщения
Вы не можете голосовать в опросах
Вы не можете прикреплять файлы к сообщениям
Вы не можете скачивать файлы