Одержимость / Lagan (Раманна / Ramanna) [1971, Индия, Мелодрама, драма, DVDRip] VO (Nastia) + Original + Sub Rus

Ответить на тему
 
Автор Сообщение

user ®

Стаж: 12 лет

Сообщений: 15092

Пост Пост: #1 от 08-Янв-2016 00:24

[Цитировать]

Одержимость / Lagan--
Страна: Индия
Жанр: Мелодрама, драма
Год выпуска: 1971
Продолжительность: 02:31:37
Перевод: Одноголосый закадровый (Nastia)
Перевод субтитров: kasmevaade
Cубтитры: Русские (на песни)
Оригинальная аудиодорожка: хинди--Режиссер: Раманна / Ramanna--В ролях: Нутан, Прем Чопра, Парикшит Сахни, Бинду, Фарида Джалал, Насир Хуссейн, Сулочана Латкар, Джагдип, Шабнам, Джайшри Т., Бирбал, Кайлаш Чопра, К.С. Дюбей--Описание: Парвати пришлось покинуть Бирму и вернуться в Индию с сыновьями Премом и Раджешем. Бедняк Севакрам, старый друг ее покойного мужа, передает ей деньги и ценности, вверенные ему мужем Парвати. У Севакрама две дочери - Шанти и Дурга. Старшая, Шанти, кроткая и застенчивая, привлекла Према. Парвати и Севакрам решают соединить их узами брака. Раджеш берет в жены задиру Дургу. Маниакальная слабость Према к прекрасному полу быстро разрушает семейную идиллию. Новоиспеченному мужу вскружила голову пылкая красавица Калпана. Жизнь становится пыткой для Шанти. Жестокость Према, его намерение убить своего не рожденного ребенка вынуждают Раджеша и Парвати вмешаться. Прем склоняет Шанти к разводу...--Автор релиза:
Релиз-группа:
Благодарность:
larisa_k, за предоставленные материалы
Nastia, за озвучку фильма
kasmevaade, за перевод субтитров и за рип
reza74, за DVD9-Сведение звука: pca1962--Сэмпл: http://multi-up.com/1082969
Качество видео: DVDRip
Формат видео: AVI
Видео: XviD, 512x384, 23.976 fps, 837 kbps
Аудио: AC3, 48 kHz, 2.0 (stereo), 192 kbps (русский)
Аудио 2: AC3, 48 kHz, 5.1 (6 ch), 448 kbps (хинди)
Формат субтитров: softsub (SRT)-
-
MediaInfo
General
Complete name : Oderzhimost.1971.DVDRip.XviD.pca1962.avi
Format : AVI
Format/Info : Audio Video Interleave
File size : 1.58 GiB
Duration : 2h 31mn
Overall bit rate : 1 491 Kbps
Movie name : Oderzhimost (Lagan) 1971
Director : Mixing audio rus - pca1962
Genre : Melodrama
Writing application : VirtualDubMod 1.5.10.2 (build 2542/release)
Original source form/Name : Movie
Video
ID : 0
Format : MPEG-4 Visual
Format profile : Advanced Simple@L5
Format settings, BVOP : 1
Format settings, QPel : No
Format settings, GMC : No warppoints
Format settings, Matrix : Custom
Codec ID : XVID
Codec ID/Hint : XviD
Duration : 2h 31mn
Bit rate : 837 Kbps
Width : 512 pixels
Height : 384 pixels
Display aspect ratio : 4:3
Frame rate : 23.976 fps
Color space : YUV
Chroma subsampling : 4:2:0
Bit depth : 8 bits
Scan type : Progressive
Compression mode : Lossy
Bits/(Pixel*Frame) : 0.178
Stream size : 908 MiB (56%)
Writing library : XviD 1.2.1 (UTC 2008-12-04)
Audio #1
ID : 1
Format : AC-3
Format/Info : Audio Coding 3
Mode extension : CM (complete main)
Format settings, Endianness : Big
Codec ID : 2000
Duration : 2h 31mn
Bit rate mode : Constant
Bit rate : 192 Kbps
Channel(s) : 2 channels
Channel positions : Front: L R
Sampling rate : 48.0 KHz
Compression mode : Lossy
Stream size : 208 MiB (13%)
Alignment : Split accross interleaves
Interleave, duration : 42 ms (1.00 video frame)
Interleave, preload duratio : 500 ms
Audio #2
ID : 2
Format : AC-3
Format/Info : Audio Coding 3
Mode extension : CM (complete main)
Format settings, Endianness : Big
Codec ID : 2000
Duration : 2h 31mn
Bit rate mode : Constant
Bit rate : 448 Kbps
Channel(s) : 6 channels
Channel positions : Front: L C R, Side: L R, LFE
Sampling rate : 48.0 KHz
Compression mode : Lossy
Stream size : 486 MiB (30%)
Alignment : Split accross interleaves
Interleave, duration : 42 ms (1.00 video frame)
Interleave, preload duratio : 500 ms

-
-Скриншот c названием фильма Скриншоты
Скачать

Скачать торрент! Одержимость / Lagan (Раманна / Ramanna) [1971, Индия, Мелодрама, драма, DVDRip] VO (Nastia) + Original + Sub Rus

Как скачивать? · Что такое торрент? · Рейтинг и ограничения

Сайт не распространяет и не хранит электронные версии произведений, а лишь предоставляет доступ к создаваемому пользователями каталогу ссылок на торрент-файлы, которые содержат только списки хеш-сумм

[Профиль] [ЛС]
Показать сообщения:    
Ответить на тему

Текущее время: Сегодня 19:15

Часовой пояс: GMT + 4



Вы не можете начинать темы
Вы не можете отвечать на сообщения
Вы не можете редактировать свои сообщения
Вы не можете удалять свои сообщения
Вы не можете голосовать в опросах
Вы не можете прикреплять файлы к сообщениям
Вы не можете скачивать файлы