Невеста-плутовка / Паланкин Долли / Dolly Ki Doli (Абхишек Догра / Abhishek Dogra) [2015, Индия, Комедия, мелодрама, HDRip] MVO (SDI Media) + Sub Rus (песни)

Ответить на тему
 
Автор Сообщение

user ®

Стаж: 12 лет

Сообщений: 15092

Пост Пост: #1 от 07-Янв-2016 12:00

[Цитировать]

Невеста-плутовка / Паланкин Долли / Dolly Ki Doli
Страна: Индия
Жанр: Комедия, мелодрама
Год выпуска: 2015
Продолжительность: 01:38:43
Перевод: Профессиональный (многоголосый закадровый) - SDI Media
Cубтитры: Отсутствуют-Режиссер: Абхишек Догра / Abhishek Dogra-В ролях: Малайка Арора, Мохаммед Зишан Айюб, Сонам Капур, Саиф Али Кхан, Раджкумар Рао, Пулкит Самрат, Арчана Пуран Сингх-Описание: Действие фильма разворачивается со свадьбы Долли, девушки, которая знакома со своим женихом всего 2 месяца, но уже готовая связать себя священными узами. Свадьба отыгрывается на славу, и молодой муж утром ищет свою новоиспечённую жену. А её и след простыл. Вместе со своими лже-родственниками, она грабит его семью до последней нитки, и сматывается в другой город искать себе новую жертву. Выдумывая себе разные имена, Долли охмуряет всё больше и больше женихов. Но всему приходит конец. На поиски горе-жены бросаются все брошенные мужья, желая наказать мошенницу. К тому времени, инспектор полиции Робин Сингх, который имеет с Долли свои счёты, решает взяться за расследование этого дела и поймать плутовку...- | -Качество видео: HDRip
Формат видео: AVI
Видео: 720x304 (2.37:1), 24 fps, XviD build 50 ~1749 kbps avg, 0.33 bit/pixel
Аудио#1: 48 kHz, AC3 Dolby Digital, 2/0 (L,R) ch, ~192 kbps (RUS)
Аудио#2: 48 kHz, AC3 Dolby Digital, 2/0 (L,R) ch, ~192 kbps (HINDI)
-
Сэмпл / Sample-Релиз-группа:
Риппер, синхрон. аудио: soso4eg- Скриншот с названием
-
Скриншоты
-
MI
General
Complete name : H:\[Релизы]\Dolly.Ki.Doli.2015.P.HDRip.XviD.BwTorrents.avi
Format : AVI
Format/Info : Audio Video Interleave
File size : 1.46 GiB
Duration : 1h 37mn
Overall bit rate : 2 149 Kbps
Writing application : VirtualDubMod 1.5.10.2 (build 2540/release)
Video
ID : 0
Format : MPEG-4 Visual
Format profile : Advanced Simple@L5
Format settings, BVOP : 2
Format settings, QPel : No
Format settings, GMC : No warppoints
Format settings, Matrix : Default (MPEG)
Codec ID : XVID
Codec ID/Hint : XviD
Duration : 1h 37mn
Bit rate : 1 751 Kbps
Width : 720 pixels
Height : 304 pixels
Display aspect ratio : 2.35:1
Frame rate : 24.000 fps
Color space : YUV
Chroma subsampling : 4:2:0
Bit depth : 8 bits
Scan type : Progressive
Compression mode : Lossy
Bits/(Pixel*Frame) : 0.333
Stream size : 1.19 GiB (81%)
Writing library : XviD 1.2.1 (UTC 2008-12-04)
Audio #1
ID : 1
Format : AC-3
Format/Info : Audio Coding 3
Mode extension : CM (complete main)
Format settings, Endianness : Big
Codec ID : 2000
Duration : 1h 37mn
Bit rate mode : Constant
Bit rate : 192 Kbps
Channel count : 2 channels
Channel positions : Front: L R
Sampling rate : 48.0 KHz
Bit depth : 16 bits
Compression mode : Lossy
Stream size : 133 MiB (9%)
Alignment : Split accross interleaves
Interleave, duration : 42 ms (1.00 video frame)
Interleave, preload duration : 500 ms
Audio #2
ID : 2
Format : AC-3
Format/Info : Audio Coding 3
Mode extension : CM (complete main)
Format settings, Endianness : Big
Codec ID : 2000
Duration : 1h 37mn
Bit rate mode : Constant
Bit rate : 192 Kbps
Channel count : 2 channels
Channel positions : Front: L R
Sampling rate : 48.0 KHz
Bit depth : 16 bits
Compression mode : Lossy
Stream size : 133 MiB (9%)
Alignment : Split accross interleaves
Interleave, duration : 42 ms (1.00 video frame)
Interleave, preload duration : 500 ms
-
Скачать

Скачать торрент! Невеста-плутовка / Паланкин Долли / Dolly Ki Doli (Абхишек Догра / Abhishek Dogra) [2015, Индия, Комедия, мелодрама, HDRip] MVO (SDI Media) + Sub Rus (песни)

Как скачивать? · Что такое торрент? · Рейтинг и ограничения

Сайт не распространяет и не хранит электронные версии произведений, а лишь предоставляет доступ к создаваемому пользователями каталогу ссылок на торрент-файлы, которые содержат только списки хеш-сумм

[Профиль] [ЛС]
Показать сообщения:    
Ответить на тему

Текущее время: Сегодня 18:12

Часовой пояс: GMT + 4



Вы не можете начинать темы
Вы не можете отвечать на сообщения
Вы не можете редактировать свои сообщения
Вы не можете удалять свои сообщения
Вы не можете голосовать в опросах
Вы не можете прикреплять файлы к сообщениям
Вы не можете скачивать файлы