Иерей-сан. Исповедь самурая (Егор Баранов) [2015, боевик, драма, WEB-DLRip]

Ответить на тему
 
Автор Сообщение

user ®

Стаж: 7 лет 7 месяцев

Сообщений: 20008

Пост Пост: #1 от 07-Янв-2016 05:51

[Цитировать]

Иерей-сан. Исповедь самурая
Жанр: боевик, драма
Год выпуска: 2015
Продолжительность: 01:41:51
Режиссёр: Егор Баранов
В ролях: Кэри-Хироюки Тагава, Иван Охлобыстин, Игорь Жижикин, Пётр Мамонов, Надежда Маркина, Дарья Екамасова, Пётр Фёдоров, Любовь Толкалина, Артём Федотов, Сергей Комаров (II), Алина Бабак, Людмила Чурсина, Андрей Ташков, Степан Самойленко, Давид (Эдишер) Гиоргобиани, Никита Ефремов, Олег Алмазов, Евгений Рахманько, Азиз Раметов, Дмитрий Высоцкий, Олег Билик, Дмитрий Ким, Александр Ким, Борис Цай, Айшат Асанбекова, Юрий Мун, Владимир Шибанков, Грант Палагаев
Описание: Главный герой — Такуро Накамура, в крещении отец Николай — священник японской православной церкви, в прошлом профессиональный спортсмен, а в настоящем — родной брат главы одного из влиятельных кланов якудза. Однажды он не смог пройти мимо насилия и защитил обычную девушку, вступив в схватку с людьми из враждебной брату группировки. Война кланов якудза неизбежна. Став заложником криминальных «разборок», священник подвергается смертельной опасности и его отправляют служить в российское село Глубокое, раздираемое внутренними конфликтами. Это место крайне интересно Андрею Нелюбину для земельных махинаций, и он готов пойти на все, чтобы жители покинули родные земли. Отец Николай объединяет сельчан вокруг полуразрушенной церкви. Восстанавливая храм, они возродили мир между собой и приняли вызов. Началась уже совсем другая война…

Качество видео: WEB-DLRip [Исходник: [url=http://***/forum/viewtopic.php?t=5139212]WEB-DL 1080p[/url]]
Формат видео: AVI
Видео: 688x288 (2.39:1), 24.000 fps, XviD build 73 ~887 kbps avg, 0.19 bit/pixel
Аудио: 48 kHz, MPEG Layer 3, 2 ch, ~128.00 kbps avg
MediaInfo
Общее
Полное имя : D:\Иерей-сан.Исповедь самурая.2015.WEB-DLRip.745MB.avi
Формат : AVI
Формат/Информация : Audio Video Interleave
Размер файла : 747 Мбайт
Продолжительность : 1 ч. 41 м.
Общий поток : 1025 Кбит/сек
Программа кодирования : VirtualDubMod 1.5.10.3 | www.virtualdub-fr.org || (build 2550/release)
Библиотека кодирования : VirtualDubMod build 2550/release
Видео
Идентификатор : 0
Формат : MPEG-4 Visual
Профиль формата : Advanced Simple@L5
Параметр BVOP формата : 2
Параметр QPel формата : Нет
Параметр GMC формата : Без точки перехода
Параметр матрицы формата : Default (H.263)
Идентификатор кодека : XVID
Идентификатор кодека/Подсказка : XviD
Продолжительность : 1 ч. 41 м.
Битрейт : 888 Кбит/сек
Ширина : 688 пикс.
Высота : 288 пикс.
Соотношение сторон : 2,35:1
Частота кадров : 24,000 кадр/сек
Цветовое пространство : YUV
Подвыборка цветности : 4:2:0
Битовая глубина : 8 бит
Тип развёртки : Прогрессивная
Метод сжатия : С потерями
Бит/(Пиксели*Кадры) : 0.187
Размер потока : 647 Мбайт (87%)
Библиотека кодирования : XviD 73
Аудио
Идентификатор : 1
Формат : MPEG Audio
Версия формата : Version 1
Профиль формата : Layer 3
Идентификатор кодека : 55
Идентификатор кодека/Подсказка : MP3
Продолжительность : 1 ч. 41 м.
Вид битрейта : Постоянный
Битрейт : 128 Кбит/сек
Канал(ы) : 2 канала(ов)
Частота : 48,0 КГц
Метод сжатия : С потерями
Размер потока : 93,3 Мбайт (12%)
Выравнивание : Соединение по промежуткам
Продолжительность промежутка : 42 мс. (1,00 видеокадр)
Время предзагрузки промежутка : 504 ms
Библиотека кодирования : LAME3.99r
Настройки программы : -m s -V 4 -q 2 -lowpass 17 -b 128
Скриншот c названием фильма Скриншоты
Скачать

Скачать торрент!

Как скачивать? · Что такое торрент? · Рейтинг и ограничения

Сайт не распространяет и не хранит электронные версии произведений, а лишь предоставляет доступ к создаваемому пользователями каталогу ссылок на торрент-файлы, которые содержат только списки хеш-сумм

[Профиль] [ЛС]
Показать сообщения:    
Ответить на тему

Текущее время: Сегодня 14:48

Часовой пояс: GMT + 4



Вы не можете начинать темы
Вы не можете отвечать на сообщения
Вы не можете редактировать свои сообщения
Вы не можете удалять свои сообщения
Вы не можете голосовать в опросах
Вы не можете прикреплять файлы к сообщениям
Вы не можете скачивать файлы