Ночь закрытых дверей (Юрий Кузьменко) [2008, комедия, мелодрама, DVDRip]

Ответить на тему
 
Автор Сообщение

user ®

Стаж: 7 лет 7 месяцев

Сообщений: 20008

Пост Пост: #1 от 06-Янв-2016 20:33

[Цитировать]

Ночь закрытых дверей
Год выпуска: 2008
Жанр: комедия, мелодрамма
Продолжительность: 01:34:17.040 (141426 frames)
Субтитры: нет
Режиссер: Юрий Кузьменко
В ролях: Елена Ксенофонтова, Александр Макогон, Лянка Грыу, Олег Савцов
Описание: Когда-то Ольге нагадали, что своего суженого она встретит под Новый год. Разочаровавшись в романе с Эдиком, который появился на пороге ее дома в новогоднюю ночь, она больше никому не верит, решительно меняет все в своей жизни - стиль, работу, квартиру. Пока Ольга избавляется от неприятных воспоминаний прошлого, ангелы не остаются без дела, они вершат судьбы своих подопечных. В очередной предновогодний вечер у Ольги на пороге появляется незваный и довольно настырный гость с далекого Севера. С этого момента (не без помощи ангелов) Новый год для Ольги и других героев фильма превращается в череду невероятных событий...
Качество: DVDRip
Формат: AVI
Видео кодек: XviD
Аудио кодек: АС3
Видео: 704x544 (1.29:1), 25 fps, XviD build 73 ~1817 kbps avg, 0.19 bit/pixel
Аудио: 48 kHz, AC3 Dolby Digital, 3/2 (L,C,R,l,r) + LFE ch, ~384.00 kbps avg
Скриншоты Медиаинфо
F:\004 Мои раздачи\Ночь закрытых дверей 1,46\noch_zakrytyh_dverei_1.46_[torrents.ru]_by_bm11.avi
General
Complete name : F:\004 Мои раздачи\Ночь закрытых дверей 1,46\noch_zakrytyh_dverei_1.46_[torrents.ru]_by_bm11.avi
Format : AVI
Format/Info : Audio Video Interleave
File size : 1.46 GiB
Duration : 1h 34mn
Overall bit rate : 2 211 Kbps
Director : bm11
Writing application : VirtualDubMod 1.5.10.3 | www.virtualdub-fr.org || (build 2550/release)
Video
Format : MPEG-4 Visual
Format profile : Streaming Video@L1
Format settings, BVOP : Yes
Format settings, QPel : No
Format settings, GMC : No warppoints
Format settings, Matrix : Custom
Codec ID : XVID
Codec ID/Hint : XviD
Duration : 1h 34mn
Bit rate : 1 818 Kbps
Width : 704 pixels
Height : 544 pixels
Display aspect ratio : 1.294
Frame rate : 25.000 fps
Resolution : 24 bits
Colorimetry : 4:2:0
Scan type : Progressive
Bits/(Pixel*Frame) : 0.190
Stream size : 1.20 GiB (82%)
Writing library : XviD 73
Audio
Format : AC-3
Format/Info : Audio Coding 3
Codec ID : 2000
Duration : 1h 34mn
Bit rate mode : Constant
Bit rate : 384 Kbps
Channel(s) : 6 channels
Channel positions : Front: L C R, Surround: L R, LFE
Sampling rate : 48.0 KHz
Stream size : 259 MiB (17%)
Alignment : Split accross interleaves
Interleave, duration : 40 ms (1.00 video frame)
Interleave, preload duration : 500 ms
Исходник
[url=http://***/forum/viewtopic.php?t=1380808]http://***/forum/viewtopic.php?t=1380808[/url]
Семпл Сравнение
[url=http://***/forum/viewtopic.php?t=1380991]http://***/forum/viewtopic.php?t=1380991[/url]
http://screenshotcomparison.com/comparison/157039/picture:1
Скачать

Скачать торрент!

Как скачивать? · Что такое торрент? · Рейтинг и ограничения

Сайт не распространяет и не хранит электронные версии произведений, а лишь предоставляет доступ к создаваемому пользователями каталогу ссылок на торрент-файлы, которые содержат только списки хеш-сумм

[Профиль] [ЛС]
Показать сообщения:    
Ответить на тему

Текущее время: Сегодня 06:25

Часовой пояс: GMT + 4



Вы не можете начинать темы
Вы не можете отвечать на сообщения
Вы не можете редактировать свои сообщения
Вы не можете удалять свои сообщения
Вы не можете голосовать в опросах
Вы не можете прикреплять файлы к сообщениям
Вы не можете скачивать файлы