Марс (Анна Меликян) [2004, драма, комедия, DVDRip]

Ответить на тему
 
Автор Сообщение

user ®

Стаж: 7 лет 7 месяцев

Сообщений: 20008

Пост Пост: #1 от 06-Янв-2016 17:27

[Цитировать]

Марс
Жанр: драма, комедия
Год выпуска: 2004
Продолжительность: 01:36:30
Режиссёр: Анна Меликян
В ролях: Гоша Куценко, Нана Кикнадзе, Артур Смольянинов, Евгения Добровольская, Елена Морозова, Александра Скачкова, Надежда Каменькович, Яна Есипович, Александр Ильин, Гали Абайдулов
Описание: Каждый человек пытается убежать в поисках лучшей жизни, убежать от людей, которые тебя окружают, от среды, в которой живешь и в конечном итоге от себя. Известный и непобедимый боксер Борис так и сделал - просто сел в поезд в неведомом ему направлении. Проснувшись рано утром, он видит в рассветной дымке неоновые буквы "МАРС" - название станции и городка, все жители которого работают на фабрике мягких игрушек. Борис проведет в городе всего лишь сутки, но они навсегда изменят жизнь его обитателей...
• 2005г. - Специальный приз жюри за оригинальную режиссуру и Приз гильдии кинопродюсеров на КФ Киношок (г.Анапа).
• 2005г. - Специальное упоминание жюри "За умение отразить реальность при помощи волшебства изображения" на МКФ фильмов восточной Европы "go East" (г. Висбаден).


Сэмпл: http://multi-up.com/1082777
Качество видео: DVDRip
Формат видео: AVI
Видео: 704x400 (1.76:1), 29.970 fps, DivX 5 ~1703 kbps avg, 0.20 bit/pixel
Аудио: 48 kHz, AC3 Dolby Digital, 3/2 (L,C,R,l,r) + LFE ch, ~448 kbps
MediaInfo
Общее
Полное имя : E:\Mars_2004.DVDRip.avi
Формат : AVI
Формат/Информация : Audio Video Interleave
Размер файла : 1,46 Гбайт
Продолжительность : 1 ч. 36 м.
Общий поток : 2163 Кбит/сек
Программа кодирования : VirtualDubMod 1.5.10.3 | www.virtualdub-fr.org || (build 2550/release)
Библиотека кодирования : VirtualDubMod build 2550/release
Видео
Идентификатор : 0
Формат : MPEG-4 Visual
Профиль формата : Advanced Simple@L5
Параметр BVOP формата : 1
Параметр QPel формата : Нет
Параметр GMC формата : Без точки перехода
Параметр матрицы формата : Default (MPEG)
Идентификатор кодека : DX50
Идентификатор кодека/Подсказка : DivX 5
Продолжительность : 1 ч. 36 м.
Битрейт : 1703 Кбит/сек
Ширина : 704 пикселя
Высота : 400 пикселей
Соотношение сторон : 16:9
Частота кадров : 29,970 кадров/сек
Цветовое пространство : YUV
Субдискретизация насыщенности : 4:2:0
Битовая глубина : 8 бит
Тип развёртки : Прогрессивная
Метод сжатия : С потерями
Бит/(Пиксели*Кадры) : 0.202
Размер потока : 1,15 Гбайт (79%)
Библиотека кодирования : XviD 1.2.1 (UTC 2008-12-04)
Аудио
Идентификатор : 1
Формат : AC-3
Формат/Информация : Audio Coding 3
Расширение режима : CM (complete main)
Параметр Endianness формата : Big
Идентификатор кодека : 2000
Продолжительность : 1 ч. 36 м.
Вид битрейта : Постоянный
Битрейт : 448 Кбит/сек
Каналы : 6 каналов
Расположение каналов : Front: L C R, Side: L R, LFE
Частота : 48,0 КГц
Метод сжатия : С потерями
Размер потока : 309 Мбайт (21%)
Выравнивание : Разделение по промежуткам
Продолжительность промежутка : 33 мс. (1,00 видеокадр)
Время предзагрузки промежутка : 500 мс.
Скриншот c названием фильма Скриншоты
Скачать

Скачать торрент!

Как скачивать? · Что такое торрент? · Рейтинг и ограничения

Сайт не распространяет и не хранит электронные версии произведений, а лишь предоставляет доступ к создаваемому пользователями каталогу ссылок на торрент-файлы, которые содержат только списки хеш-сумм

[Профиль] [ЛС]
Показать сообщения:    
Ответить на тему

Текущее время: Сегодня 04:03

Часовой пояс: GMT + 4



Вы не можете начинать темы
Вы не можете отвечать на сообщения
Вы не можете редактировать свои сообщения
Вы не можете удалять свои сообщения
Вы не можете голосовать в опросах
Вы не можете прикреплять файлы к сообщениям
Вы не можете скачивать файлы