Последний праведник / The Last Saint (Рене Науфаху / Rene Naufahu) [2014, Новая Зеландия, драма, боевик, криминал, BDRip 720p] AVO (Андрей Дольский) + Original Eng

Ответить на тему
 
Автор Сообщение

user ®

Стаж: 7 лет 7 месяцев

Сообщений: 20008

Пост Пост: #1 от 06-Янв-2016 02:00

[Цитировать]

Последний праведник / The Last Saint
Страна: Новая Зеландия
Студия: Imaginex Studios, The Reservoir
Жанр: Драма, боевик, криминал
Год выпуска: 2014
Продолжительность: 01:48:35
Перевод: Авторский (одноголосый закадровый) Андрей Дольский
Cубтитры: нет
Оригинальная аудиодорожка: английский
Режиссер: Рене Науфаху / Rene Naufahu
В ролях: Беула Коале, Кельвин Тутио, Джозеф Науфаху, Ксавьер Хоран, Джой Вэли, Колин Мой, София Гюйгенс, Джаред Тернер, Сайя Фолау, Майк Кинг, Джейн Мэтьюс, Тарен Каннингам, Шушила Такао, Файн Купу, Мариска Шомен
Описание: Чтобы помочь своей матери и избавиться от наркозависимости скромный подросток Минка решается преступить закон. Через своего отца - владельца стрип-клуба - парень знакомится с наркоторговцем Пинболлом и начинает на него работать. Всё больше и больше Минка погружается в подземельную жизнь Окленда. Вскоре он должен принять решение о том, кто он: гангстер или последний праведник в мире наркотиков, секса и насилия.

Исходник: The Last Saint 2014 BluRay 1080p DTS-HD MA 5 1 AVC REMUX-FraMeSToR
Тип релиза: BDRip 720p / Tonik
Контейнер: MKV
Видео: MPEG-4 AVC, 6029 Кбит/с, 1280x544, 23,976 fps
Аудио: Rus, AC3, 448 kb/s (6 ch), 48 kHz
Аудио 2: Eng, DTS, 1152 kbps (6 ch), 48 kHz
MediaInfo
x264 [info]: frame I:881 Avg QP:12.23 size: 82613
x264 [info]: frame P:33378 Avg QP:13.84 size: 49759
x264 [info]: frame B:121960 Avg QP:15.65 size: 27067
Format : Matroska
Format version : Version 4 / Version 2
File size : 5.90 GiB
Duration : 1h 48mn
Overall bit rate : 7 784 Kbps
Movie name : Последний праведник. (Tonik)
Encoded date : UTC 2015-12-08 02:16:10
Writing application : mkvmerge v7.1.0 ('Good Love') 64bit built on Jul 27 2014 13:06:55
Writing library : libebml v1.3.0 + libmatroska v1.4.1
DURATION : 01:48:35.584000000
NUMBER_OF_FRAMES : 203612
NUMBER_OF_BYTES : 364872704
_STATISTICS_WRITING_APP : mkvmerge v7.1.0 ('Good Love') 64bit built on Jul 27 2014 13:06:55
_STATISTICS_WRITING_DATE_UTC : 2015-12-08 02:16:10
_STATISTICS_TAGS : BPS DURATION NUMBER_OF_FRAMES NUMBER_OF_BYTES
Video
ID : 1
Format : AVC
Format/Info : Advanced Video Codec
Format profile : High@L4.1
Format settings, CABAC : Yes
Format settings, ReFrames : 12 frames
Codec ID : V_MPEG4/ISO/AVC
Duration : 1h 48mn
Bit rate : 6 029 Kbps
Width : 1 280 pixels
Height : 544 pixels
Display aspect ratio : 2.35:1
Frame rate mode : Constant
Frame rate : 23.976 fps
Color space : YUV
Chroma subsampling : 4:2:0
Bit depth : 8 bits
Scan type : Progressive
Bits/(Pixel*Frame) : 0.361
Stream size : 4.57 GiB (77%)
Title : Tonik
Writing library : x264 core 148 r2597 e86f3a1
Encoding settings : cabac=1 / ref=12 / deblock=1:-3:-3 / analyse=0x3:0x133 / me=umh / subme=11 / psy=1 / psy_rd=1.00:0.00 / mixed_ref=1 / me_range=32 / chroma_me=1 / trellis=2 / 8x8dct=1 / cqm=0 / deadzone=21,11 / fast_pskip=0 / chroma_qp_offset=-2 / threads=12 / lookahead_threads=3 / sliced_threads=0 / nr=0 / decimate=0 / interlaced=0 / bluray_compat=0 / constrained_intra=0 / bframes=11 / b_pyramid=2 / b_adapt=2 / b_bias=0 / direct=3 / weightb=1 / open_gop=0 / weightp=2 / keyint=250 / keyint_min=23 / scenecut=40 / intra_refresh=0 / rc=crf / mbtree=0 / crf=16.3 / qcomp=0.60 / qpmin=0 / qpmax=69 / qpstep=4 / ip_ratio=1.40 / pb_ratio=1.30 / aq=1:1.00
Language : English
Default : Yes
Forced : No
DURATION : 01:48:35.641000000
NUMBER_OF_FRAMES : 156219
NUMBER_OF_BYTES : 5034681449
_STATISTICS_WRITING_APP : mkvmerge v7.1.0 ('Good Love') 64bit built on Jul 27 2014 13:06:55
_STATISTICS_WRITING_DATE_UTC : 2015-12-08 02:16:10
_STATISTICS_TAGS : BPS DURATION NUMBER_OF_FRAMES NUMBER_OF_BYTES
Audio #1
ID : 2
Format : AC-3
Format/Info : Audio Coding 3
Mode extension : CM (complete main)
Format settings, Endianness : Big
Codec ID : A_AC3
Duration : 1h 48mn
Bit rate mode : Constant
Bit rate : 448 Kbps
Channel(s) : 6 channels
Channel positions : Front: L C R, Side: L R, LFE
Sampling rate : 48.0 KHz
Bit depth : 16 bits
Compression mode : Lossy
Stream size : 348 MiB (6%)
Title : Дольский
Language : Russian
Default : Yes
Forced : No
Audio #2
ID : 3
Format : DTS
Format/Info : Digital Theater Systems
Mode : 16
Format settings, Endianness : Big
Codec ID : A_DTS
Duration : 1h 48mn
Bit rate mode : Constant
Bit rate : 1 152 Kbps
Channel(s) : 6 channels
Channel positions : Front: L C R, Side: L R, LFE
Sampling rate : 48.0 KHz
Bit depth : 16 bits
Compression mode : Lossy
Stream size : 895 MiB (15%)
Language : English
Default : No
Forced : No
Menu
00:00:00.000 : en:Chapter 01
00:12:27.621 : en:Chapter 02
00:24:06.111 : en:Chapter 03
00:35:21.702 : en:Chapter 04
00:46:49.515 : en:Chapter 05
00:59:26.646 : en:Chapter 06
01:13:07.174 : en:Chapter 07
01:26:02.073 : en:Chapter 08
Скриншоты
Скачать

Скачать торрент!

Как скачивать? · Что такое торрент? · Рейтинг и ограничения

Сайт не распространяет и не хранит электронные версии произведений, а лишь предоставляет доступ к создаваемому пользователями каталогу ссылок на торрент-файлы, которые содержат только списки хеш-сумм

[Профиль] [ЛС]
Показать сообщения:    
Ответить на тему

Текущее время: Сегодня 18:34

Часовой пояс: GMT + 4



Вы не можете начинать темы
Вы не можете отвечать на сообщения
Вы не можете редактировать свои сообщения
Вы не можете удалять свои сообщения
Вы не можете голосовать в опросах
Вы не можете прикреплять файлы к сообщениям
Вы не можете скачивать файлы