Псы 2: Последняя кровь / Psy 2: Ostatnia Krew (Владислав Пасиковски / Wladyslaw Pasikowski) [1994, Польша, боевик, криминал, HDTV 1080i] DVO + Original Pol + Sub Rus

Ответить на тему
 
Автор Сообщение

user ®

Стаж: 7 лет 7 месяцев

Сообщений: 20008

Пост Пост: #1 от 06-Янв-2016 02:00

[Цитировать]

Псы 2: Последняя кровь / Psy 2: Ostatnia Krew- Страна: Польша
Жанр: боевик, криминал
Год выпуска: 1994
Продолжительность: 01:38:59-Перевод: Профессиональный (двухголосый закадровый)
Cубтитры: русские (на не русскую речь), польский хардсаб (на не польскую речь)
Оригинальная аудиодорожка: польский / русский / сербохорватский-Режиссер: Владислав Пасиковски / Wladyslaw Pasikowski
В ролях: Богуслав Линда, Цезарь Пазура, Артур Жмиевски, Магдалена Дандурян, Валерий Приемыхов, Сергей Шакуров, Петр Зайченко, Александр Беднаж, Эдвард Линде-Любашенко, Ян Махульский...- | Релиз: -Описание: По всей планете гибнут люди в межнациональных конфликтах и гражданских войнах. Ни для кого не секрет, что некоторые прилично наживаются на них. Из этого мощного, страшного, реалистичного фильма вы узнаете кто и как снабжает такие конфликты оружием. На этот раз оно поставляется в бывшую Югославию. При этом обогащаются и гибнут, убивая друг друга, поляки, русские, украинцы. В центре сюжета три друга - один только что вышел из тюрьмы, а другого, простого уличного регулировщика, он подбил съездить в Тересполь, чтобы привезти 21 млн. долларов на покупку оружия для Сараево. Третий - просто пес войны, любитель острых ощущений и стрельбы. Он хороший товарищ и лихо пьет водку. Заправляет всем бывший советский полковник Савчук. Предательство, невозможность дружбы, смерть, кровь и обреченность на гибель тех, в ком осталась хоть капля совести, тех, кто не хочет участвовать в братоубийственных войнах. Сделана эта жуткая драма в жанре динамичного и драматичного боевика. Крови, как у Тарантино, не меньше. Польский кинематограф всегда был сильным, подтверждением является этот далекий от заурядности фильм.-Доп. информация:
- За [url=http://***/forum/viewtopic.php?t=895755]исходную русскую дорожку[/url] спасибо Шерсть.
- За исходную [url=http://***/forum/viewtopic.php?t=1355636]польскую 5.1 дорожку и русские субтитры[/url] спасибо MMManja.
- Захват спутниковой трансляции, работа со звуком и видео - xfiles.-Семпл: http://sendfile.su/1187302-Тип релиза: HDTV 1080i
Контейнер: TS
Видео: 1920x1080 (16:9), 25.000 fps, AVC, ~6577 Kbps,
Аудио 1: Russian, 48.0 KHz, AC3, 1 ch, 128 Kbps
Аудио 2: Polish, Russian, Serbo-Croatian, 48.0 KHz, AC3, 2 ch, 192 Kbps - 2.0 | Broadcast
Аудио 3: Polish, Russian, Serbo-Croatian, 48.0 KHz, AC3, 6 ch, 448 Kbps - 5.1 | DVD
Формат субтитров: PGS, SRT
MediaInfo
GeneralID : 1 (0x1)Complete name : Psy.2.Ostatnia.krew.1994.HDTV.1080i.TVP-HD.tsFormat : MPEG-TSFile size : 5.35 GiBDuration : 1h 38mnOverall bit rate mode : VariableOverall bit rate : 7 735 KbpsMaximum Overall bit rate : 35.5 Mbps
VideoID : 4113 (0x1011)Menu ID : 1 (0x1)Format : AVCFormat/Info : Advanced Video CodecFormat profile : High@L4Format settings, CABAC : YesFormat settings, ReFrames : 4 framesCodec ID : 27Duration : 1h 38mnBit rate : 6 577 KbpsWidth : 1 920 pixelsHeight : 1 080 pixelsDisplay aspect ratio : 16:9Frame rate : 25.000 fpsColor space : YUVChroma subsampling : 4:2:0Bit depth : 8 bitsScan type : InterlacedScan type, store method : Separated fieldsScan order : Top Field FirstBits/(Pixel*Frame) : 0.127Stream size : 4.55 GiB (85%)Color range : LimitedColor primaries : BT.709Transfer characteristics : BT.709Matrix coefficients : BT.709
Audio #1ID : 4352 (0x1100)Menu ID : 1 (0x1)Format : AC-3Format/Info : Audio Coding 3Mode extension : CM (complete main)Format settings, Endianness : BigCodec ID : 129Duration : 1h 38mnBit rate mode : ConstantBit rate : 128 KbpsChannel(s) : 1 channelChannel positions : Front: CSampling rate : 48.0 KHzFrame rate : 31.250 fps (1536 spf)Compression mode : LossyStream size : 90.6 MiB (2%)Language : Russian
Audio #2ID : 4353 (0x1101)Menu ID : 1 (0x1)Format : AC-3Format/Info : Audio Coding 3Mode extension : CM (complete main)Format settings, Endianness : BigCodec ID : 129Duration : 1h 38mnBit rate mode : ConstantBit rate : 192 KbpsChannel(s) : 2 channelsChannel positions : Front: L RSampling rate : 48.0 KHzFrame rate : 31.250 fps (1536 spf)Compression mode : LossyStream size : 136 MiB (2%)Language : Polish
Audio #3ID : 4354 (0x1102)Menu ID : 1 (0x1)Format : AC-3Format/Info : Audio Coding 3Mode extension : CM (complete main)Format settings, Endianness : BigCodec ID : 129Duration : 1h 38mnBit rate mode : ConstantBit rate : 448 KbpsChannel(s) : 6 channelsChannel positions : Front: L C R, Side: L R, LFESampling rate : 48.0 KHzFrame rate : 31.250 fps (1536 spf)Compression mode : LossyStream size : 317 MiB (6%)Language : Polish
TextID : 4608 (0x1200)Menu ID : 1 (0x1)Format : PGSCodec ID : 144Delay relative to video : 4s 80msLanguage : Russian
Скриншоты
Скачать

Скачать торрент!

Как скачивать? · Что такое торрент? · Рейтинг и ограничения

Сайт не распространяет и не хранит электронные версии произведений, а лишь предоставляет доступ к создаваемому пользователями каталогу ссылок на торрент-файлы, которые содержат только списки хеш-сумм

[Профиль] [ЛС]
Показать сообщения:    
Ответить на тему

Текущее время: Сегодня 05:10

Часовой пояс: GMT + 4



Вы не можете начинать темы
Вы не можете отвечать на сообщения
Вы не можете редактировать свои сообщения
Вы не можете удалять свои сообщения
Вы не можете голосовать в опросах
Вы не можете прикреплять файлы к сообщениям
Вы не можете скачивать файлы