Секрет Зоар / The Zohar Secret (Владэк Занковски) [2015, Израиль, США, Украина, Россия, Испания, фантастика, драма, комедия, WEB-DLRip] Original Rus

Ответить на тему
 
Автор Сообщение

user ®

Стаж: 7 лет 7 месяцев

Сообщений: 20008

Пост Пост: #1 от 06-Янв-2016 02:00

[Цитировать]

Секрет Зоар / The Zohar Secret
Страна: Израиль, США, Украина, Россия, Испания
Жанр: фантастика, драма, комедия
Год выпуска: 2015
Продолжительность: 02:03:49
Перевод: не требуется
Cубтитры: на иностранную речь вшитые не отключаемые
Оригинальная аудиодорожка: русский
Режиссер: Владэк Занковски
В ролях: Александр Демидов, Ирина Баринова, Генри Давид, Рой Мирон, Олег Фендюра, Светлана Демидов, Сергей Попов, Игал Резник, Юрий Ядыкин, Владимир Золин
Описание: В руки Макса попал древний свиток, в котором была описана вся история человечества от начала и до самого конца. Попытавшись воспользоваться этой информацией в собственных интересах, Макс запускает механизм, который начинает влиять на его жизнь.
Сэмпл: http://multi-up.com/1071329
Тип релиза: WEB-DLRip
Контейнер: MKV
Видео: ~2 016 Кбит/с, 1280x536, 24 кадра/с
Аудио: MP3, 44.100 KHz, 2 ch, 128 Kbps

MediaInfo
General
Unique ID : 179769594414024234501078003814611103000 (0x873E5D4FB0C9E892B8C8D80B39F92D18)
Complete name : F:\TheZoharSecret720p.mkv
Format : Matroska
Format version : Version 4 / Version 2
File size : 1.89 GiB
Duration : 2h 3mn
Overall bit rate : 2 188 Kbps
Encoded date : UTC 2015-10-13 13:31:48
Writing application : mkvmerge v8.3.0 ('Over the Horizon') 64bit
Writing library : libebml v1.3.1 + libmatroska v1.4.2
DURATION : 02:03:49.172000000
NUMBER_OF_FRAMES : 284398
NUMBER_OF_BYTES : 118866755
_STATISTICS_WRITING_APP : mkvmerge v8.3.0 ('Over the Horizon') 64bit
_STATISTICS_WRITING_DATE_UTC : 2015-10-13 13:31:48
_STATISTICS_TAGS : BPS DURATION NUMBER_OF_FRAMES NUMBER_OF_BYTES
Video
ID : 1
Format : AVC
Format/Info : Advanced Video Codec
Format profile : Baseline@L3.1
Format settings, CABAC : No
Format settings, ReFrames : 1 frame
Format settings, GOP : M=1, N=12
Codec ID : V_MPEG4/ISO/AVC
Duration : 2h 3mn
Bit rate : 2 016 Kbps
Width : 1 280 pixels
Height : 536 pixels
Display aspect ratio : 2.40:1
Frame rate mode : Constant
Frame rate : 24.000 fps
Color space : YUV
Chroma subsampling : 4:2:0
Bit depth : 8 bits
Scan type : Progressive
Bits/(Pixel*Frame) : 0.122
Stream size : 1.74 GiB (92%)
Language : English
Default : Yes
Forced : No
Audio
ID : 2
Format : MPEG Audio
Format version : Version 1
Format profile : Layer 3
Mode : Joint stereo
Codec ID : A_MPEG/L3
Codec ID/Hint : MP3
Duration : 2h 3mn
Bit rate mode : Constant
Bit rate : 128 Kbps
Channel(s) : 2 channels
Sampling rate : 44.1 KHz
Compression mode : Lossy
Stream size : 113 MiB (6%)
Language : Russian
Default : Yes
Forced : No
Скриншоты
Скачать

Скачать торрент!

Как скачивать? · Что такое торрент? · Рейтинг и ограничения

Сайт не распространяет и не хранит электронные версии произведений, а лишь предоставляет доступ к создаваемому пользователями каталогу ссылок на торрент-файлы, которые содержат только списки хеш-сумм

[Профиль] [ЛС]
Показать сообщения:    
Ответить на тему

Текущее время: Сегодня 03:48

Часовой пояс: GMT + 4



Вы не можете начинать темы
Вы не можете отвечать на сообщения
Вы не можете редактировать свои сообщения
Вы не можете удалять свои сообщения
Вы не можете голосовать в опросах
Вы не можете прикреплять файлы к сообщениям
Вы не можете скачивать файлы