Красивая и безумная / Beautiful & Twisted (Кристофер Залла / Christopher Zalla) [2015, США, триллер, драма, криминал, WEB-DL 1080p] MVO + 2xSub (Rus, Eng) + Original Eng

Ответить на тему
 
Автор Сообщение

user ®

Стаж: 7 лет 7 месяцев

Сообщений: 20008

Пост Пост: #1 от 05-Янв-2016 22:54

[Цитировать]

Красивая и безумная / Beautiful & Twisted- Страна: США
Студия: PeaceOut Productions, Silver Screen Pictures, Sony Pictures Television
Жанр: триллер, драма, криминал
Год выпуска: 2015
Продолжительность: 01:26:15
Перевод: Профессиональный (многоголосый закадровый)
Cубтитры: русские, английские
Оригинальная аудиодорожка: английская
Режиссер: Кристофер Залла / Christopher Zalla
В ролях: Роб Лоу, Пас Вега, Кэндис Берген, Сейшелл Гэбриел, Джуд Чикколелла, Мишель Херд, Уолтер ФонтЛеРой, Сони Николь Брингас, Захари Рифкин, Остин Уэйкфилд
Описание: В июле 2009 года Бен Новак, унаследовавший сеть отелей Fontainebleau, был жестоко убит в номере отеля в пригороде Нью-Йорка. Своими ужасающими садистскими деталями страшное убийство вызвало мгновенный интерес средств массовой информации. Говорили, что зверское убийство было спланировано женщиной, пытавшейся уничтожить своего мужа и завладеть его состоянием.

Тип релиза: WEB-DL 1080p [RK]
Контейнер: MKV
Видео: 1916x1076 (16:9), 23.976 fps, Advanced Video Codec ~5135 kbps avg, 0.104 bit/pixel
Аудио 1: 48 kHz, AC3 Dolby Digital, 3/2 (L,C,R,l,r) + LFE ch, ~384 kbps (русская)
Аудио 2: 48 kHz, AC3 Dolby Digital, 3/2 (L,C,R,l,r) + LFE ch, ~384 kbps (английская)
Формат субтитров: softsub (SRT)
Чаптеры: есть

возраст: зрителям, достигшим 18 лет
MediaInfo
GeneralUnique ID : 219526463942331368404226243501299967600 (0xA52742510C59CDCFADBD2A7AD289A670)Complete name : \Beautiful.&.Twisted.2015.WEB-DL.1080p.AC3.H.264.mkvFormat : MatroskaFormat version : Version 4 / Version 2File size : 3.63 GiBDuration : 1h 26mnOverall bit rate : 6 023 KbpsEncoded date : UTC 2015-12-27 08:34:35Writing application : mkvmerge v7.3.0 ('Nouages') 64bit built on Oct 22 2014 18:53:34Writing library : libebml v1.3.0 + libmatroska v1.4.1
VideoID : 1Format : AVCFormat/Info : Advanced Video CodecFormat profile : High@L4Format settings, CABAC : YesFormat settings, ReFrames : 4 framesCodec ID : V_MPEG4/ISO/AVCDuration : 1h 26mnBit rate : 5 135 KbpsWidth : 1 916 pixelsHeight : 1 076 pixelsDisplay aspect ratio : 16:9Frame rate mode : ConstantFrame rate : 23.976 fpsColor space : YUVChroma subsampling : 4:2:0Bit depth : 8 bitsScan type : ProgressiveBits/(Pixel*Frame) : 0.104Stream size : 3.09 GiB (85%)Title : Beautiful.and.Twisted.2015.1080p.WEB-DL.DD5.1.H.264-RKLanguage : EnglishDefault : YesForced : NoColor range : LimitedColor primaries : BT.709Transfer characteristics : BT.709Matrix coefficients : BT.709
Audio #1ID : 2Format : AC-3Format/Info : Audio Coding 3Mode extension : CM (complete main)Format settings, Endianness : BigCodec ID : A_AC3Duration : 1h 26mnBit rate mode : ConstantBit rate : 384 KbpsChannel(s) : 6 channelsChannel positions : Front: L C R, Side: L R, LFESampling rate : 48.0 KHzFrame rate : 31.250 fps (1536 spf)Compression mode : LossyStream size : 237 MiB (6%)Title : ac3 5.1 384 kbps MVOLanguage : RussianDefault : YesForced : No
Audio #2ID : 3Format : AC-3Format/Info : Audio Coding 3Mode extension : CM (complete main)Format settings, Endianness : BigCodec ID : A_AC3Duration : 1h 26mnBit rate mode : ConstantBit rate : 384 KbpsChannel(s) : 6 channelsChannel positions : Front: L C R, Side: L R, LFESampling rate : 48.0 KHzFrame rate : 31.250 fps (1536 spf)Compression mode : LossyStream size : 237 MiB (6%)Title : ac3 5.1 384 kbps OriginalLanguage : EnglishDefault : NoForced : No
Text #1ID : 4Format : UTF-8Codec ID : S_TEXT/UTF8Codec ID/Info : UTF-8 Plain TextTitle : Sub-fullLanguage : RussianDefault : NoForced : No
Text #2ID : 5Format : UTF-8Codec ID : S_TEXT/UTF8Codec ID/Info : UTF-8 Plain TextTitle : Sub-fullLanguage : EnglishDefault : NoForced : No
Menu00:00:00.000 : en:100:04:10.000 : en:200:09:49.000 : en:300:14:50.000 : en:400:22:13.000 : en:500:26:40.000 : en:600:32:01.000 : en:700:37:58.000 : en:800:41:30.000 : en:900:43:34.000 : en:1000:47:28.000 : en:1100:49:56.000 : en:1200:57:41.000 : en:1301:03:42.000 : en:1401:10:23.000 : en:1501:16:57.000 : en:16
Скриншоты
Скачать

Скачать торрент!

Как скачивать? · Что такое торрент? · Рейтинг и ограничения

Сайт не распространяет и не хранит электронные версии произведений, а лишь предоставляет доступ к создаваемому пользователями каталогу ссылок на торрент-файлы, которые содержат только списки хеш-сумм

[Профиль] [ЛС]
Показать сообщения:    
Ответить на тему

Текущее время: Сегодня 07:55

Часовой пояс: GMT + 4



Вы не можете начинать темы
Вы не можете отвечать на сообщения
Вы не можете редактировать свои сообщения
Вы не можете удалять свои сообщения
Вы не можете голосовать в опросах
Вы не можете прикреплять файлы к сообщениям
Вы не можете скачивать файлы