Чумовая пятница / Freaky Friday (Гэри Нельсон / Gary Nelson) [1976, США, фэнтези, комедия, семейный, WEB-DL 1080p] DVO (НТВ+) + Sub Rus, Eng + Original Eng

Ответить на тему
 
Автор Сообщение

user ®

Стаж: 7 лет 7 месяцев

Сообщений: 20008

Пост Пост: #1 от 05-Янв-2016 22:54

[Цитировать]

Чумовая пятница / Freaky Friday
Страна: США
Студия: Walt Disney Productions
Жанр: фэнтези, комедия, семейный
Год выпуска: 1976
Продолжительность: 01:38:14
Перевод: Профессиональный (двухголосый закадровый) НТВ+
Cубтитры: русские (Verrucka), английские
Оригинальная аудиодорожка: английский
Режиссер: Гэри Нельсон / Gary Nelson
В ролях: Барбара Харрис, Джоди Фостер, Джон Эстин, Пэтси Келли, Дик Ван Пэттен, Вики Шрек, Соррел Бук, Алан Оппенхаймер, Рут Бацци, Кэй Баллард
Описание: Домохозяйка Эллен Эндрюс и ее дочь-подросток Аннабель никак не могут найти общий язык друг с другом, из-за чего постоянно ссорятся. Однажды они одновременно загадывают одинаковое желание — оказаться на месте друг друга, которое исполняется на следующий день, в пятницу...

Sample
Тип релиза: WEB-DL 1080p
Контейнер: MKV
Видео: MPEG4 AVC Video, H264, 16:9, 1912x1076, 23.976 fps, 5239 kbps
Аудио: Russian (AC3, 2 ch, 192 kbps, 16 bits, 48.0 KHz) - DVO
Аудио 2: English (AC3, 6 ch, 384 kbps, 16 bits, 48.0 KHz) - оригинал
Формат субтитров: softsub (SRT)

MediaInfo
General
Unique ID : 208579671384870747273465497347794949958 (0x9CEAFBC611E69A5BB76135DE1FB85746)
Complete name : E:\Freaky Friday 1976 WEB-DL 1080p.mkv
Format : Matroska
Format version : Version 4 / Version 2
File size : 4.07 GiB
Duration : 1h 38mn
Overall bit rate : 5 933 Kbps
Encoded date : UTC 2015-12-27 12:12:04
Writing application : mkvmerge v6.1.0 ('Old Devil') built on Mar 2 2013 14:32:37
Writing library : libebml v1.3.0 + libmatroska v1.4.0
Video
ID : 1
Format : AVC
Format/Info : Advanced Video Codec
Format profile : High@L4.0
Format settings, CABAC : Yes
Format settings, ReFrames : 4 frames
Codec ID : V_MPEG4/ISO/AVC
Duration : 1h 38mn
Bit rate : 5 239 Kbps
Width : 1 912 pixels
Height : 1 076 pixels
Display aspect ratio : 16:9
Frame rate mode : Constant
Frame rate : 23.976 fps
Color space : YUV
Chroma subsampling : 4:2:0
Bit depth : 8 bits
Scan type : Progressive
Bits/(Pixel*Frame) : 0.106
Stream size : 3.59 GiB (88%)
Language : English
Default : Yes
Forced : No
Color primaries : BT.709
Transfer characteristics : BT.709
Matrix coefficients : BT.709
Audio #1
ID : 2
Format : AC-3
Format/Info : Audio Coding 3
Mode extension : CM (complete main)
Format settings, Endianness : Big
Codec ID : A_AC3
Duration : 1h 38mn
Bit rate mode : Constant
Bit rate : 192 Kbps
Channel count : 2 channels
Channel positions : Front: L R
Sampling rate : 48.0 KHz
Bit depth : 16 bits
Compression mode : Lossy
Stream size : 135 MiB (3%)
Language : Russian
Default : Yes
Forced : No
Audio #2
ID : 3
Format : AC-3
Format/Info : Audio Coding 3
Mode extension : CM (complete main)
Format settings, Endianness : Big
Codec ID : A_AC3
Duration : 1h 38mn
Bit rate mode : Constant
Bit rate : 384 Kbps
Channel count : 6 channels
Channel positions : Front: L C R, Side: L R, LFE
Sampling rate : 48.0 KHz
Bit depth : 16 bits
Compression mode : Lossy
Stream size : 270 MiB (6%)
Language : English
Default : No
Forced : No
Text #1
ID : 4
Format : UTF-8
Codec ID : S_TEXT/UTF8
Codec ID/Info : UTF-8 Plain Text
Language : Russian
Default : No
Forced : No
Text #2
ID : 5
Format : UTF-8
Codec ID : S_TEXT/UTF8
Codec ID/Info : UTF-8 Plain Text
Language : English
Default : No
Forced : No
Menu
00:00:00.000 : en:Opening Credits
00:03:28.000 : en:A Story to Tell
00:08:34.000 : en:The Switch
00:18:36.000 : en:In Each Other's Shoes
00:28:55.000 : en:"I Think We Goofed"
00:33:53.000 : en:"How Different Can it Be?"
00:46:02.000 : en:A "Date" with Boris
00:53:33.000 : en:Sports Spectacular
01:06:03.000 : en:Annabel's Makeover
01:14:33.000 : en:Parent/Student – Teacher Conferences
01:20:22.000 : en:Freaky Finale
01:34:23.000 : en:Back to Normal and Better for it
Скриншоты
Скачать

Скачать торрент!

Как скачивать? · Что такое торрент? · Рейтинг и ограничения

Сайт не распространяет и не хранит электронные версии произведений, а лишь предоставляет доступ к создаваемому пользователями каталогу ссылок на торрент-файлы, которые содержат только списки хеш-сумм

[Профиль] [ЛС]
Показать сообщения:    
Ответить на тему

Текущее время: Сегодня 17:26

Часовой пояс: GMT + 4



Вы не можете начинать темы
Вы не можете отвечать на сообщения
Вы не можете редактировать свои сообщения
Вы не можете удалять свои сообщения
Вы не можете голосовать в опросах
Вы не можете прикреплять файлы к сообщениям
Вы не можете скачивать файлы