Дадли Справедливый / Dudley Do-Right (Хью Уилсон / Hugh Wilson) [1999, США, комедия, семейный, WEB-DL 720p] MVO + Sub Eng + Original Eng

Ответить на тему
 
Автор Сообщение

user ®

Стаж: 7 лет 7 месяцев

Сообщений: 20008

Пост Пост: #1 от 05-Янв-2016 22:54

[Цитировать]

Дадли Справедливый / Dudley Do-Right
Страна: США
Студия: Universal Pictures
Жанр: комедия, семейный
Год выпуска: 1999
Продолжительность: 01:22:41
Перевод: Профессиональный (многоголосый закадровый)
Cубтитры: русские (forced только на мультик), английские
Оригинальная аудиодорожка: английский
Режиссер: Хью Уилсон / Hugh Wilson
В ролях: Брендан Фрейзер, Сара Джессика Паркер, Альфред Молина, Эрик Айдл, Роберт Проски, Алекс Рокко, Джек Келер, Луис Мустилльо, Дон Йессо, Джед Риис
Описание: Жили-были два мальчика. И были они влюблены в одну девочку. Мальчик по имени Дадли мечтал стать королевским горным полицейским, потому, что он был справедливый и примерный малыш. Другой мальчуган, по имени Снайдли, мечтал только об одном — стать настоящим злодеем, ибо обожал пакостить и хулиганить.
Прошли годы… Мальчики выросли и стали теми, кем хотели быть. Предмет их совместного обожания — Нэлл — стала прекрасной девушкой. Кому из них: благородному, но бестолковому Дадли или хитрому, но злобному Снайдли удастся завоевать ее сердце?

Доп. информация: Первые 5 минут в вебке идёт поучительный мульт про хитрого волка, то же самое было и на диске DVD R2 [url=http://***/forum/viewtopic.php?t=3535052]в этой раздаче[/url], поэтому полосы обрезаны именно по размеру мульта. Он был без перевода, поэтому я его перевел и добавил русские сабы(только на мульт).

Sample
Тип релиза: WEB-DL 720p
Контейнер: MKV
Видео: MPEG4 AVC Video, H264, 16:9, 1280x692, 23.976 fps, 3954 kbps
Аудио: Russian (AC3, 2 ch, 224 kbps, 16 bits, 48.0 KHz) - MVO
Аудио 2: English (AC3, 6 ch, 384 kbps, 16 bits, 48.0 KHz) - оригинал
Формат субтитров: softsub (SRT)

MediaInfo
General
Unique ID : 212534029804243722676347156000685990475 (0x9FE490B2442DC3578651BB7CACD8A24B)
Complete name : E:\Dudley Do-Right 1999 WEB-DL 720p (2).mkv
Format : Matroska
Format version : Version 4 / Version 2
File size : 2.69 GiB
Duration : 1h 22mn
Overall bit rate : 4 655 Kbps
Encoded date : UTC 2015-12-29 19:53:19
Writing application : mkvmerge v6.1.0 ('Old Devil') built on Mar 2 2013 14:32:37
Writing library : libebml v1.3.0 + libmatroska v1.4.0
Video
ID : 1
Format : AVC
Format/Info : Advanced Video Codec
Format profile : High@L3.1
Format settings, CABAC : No
Format settings, ReFrames : 2 frames
Codec ID : V_MPEG4/ISO/AVC
Duration : 1h 22mn
Bit rate : 3 954 Kbps
Width : 1 280 pixels
Height : 692 pixels
Display aspect ratio : 1.85:1
Frame rate mode : Constant
Frame rate : 23.976 fps
Color space : YUV
Chroma subsampling : 4:2:0
Bit depth : 8 bits
Scan type : Progressive
Bits/(Pixel*Frame) : 0.186
Stream size : 2.28 GiB (85%)
Language : English
Default : Yes
Forced : No
Color primaries : BT.709
Transfer characteristics : BT.709
Matrix coefficients : BT.709
Audio #1
ID : 2
Format : AC-3
Format/Info : Audio Coding 3
Mode extension : CM (complete main)
Format settings, Endianness : Big
Codec ID : A_AC3
Duration : 1h 22mn
Bit rate mode : Constant
Bit rate : 224 Kbps
Channel count : 2 channels
Channel positions : Front: L R
Sampling rate : 48.0 KHz
Bit depth : 16 bits
Compression mode : Lossy
Stream size : 132 MiB (5%)
Language : Russian
Default : Yes
Forced : No
Audio #2
ID : 3
Format : AC-3
Format/Info : Audio Coding 3
Mode extension : CM (complete main)
Format settings, Endianness : Big
Codec ID : A_AC3
Duration : 1h 22mn
Bit rate mode : Constant
Bit rate : 384 Kbps
Channel count : 6 channels
Channel positions : Front: L C R, Side: L R, LFE
Sampling rate : 48.0 KHz
Bit depth : 16 bits
Compression mode : Lossy
Stream size : 227 MiB (8%)
Language : English
Default : No
Forced : No
Text #1
ID : 4
Format : UTF-8
Codec ID : S_TEXT/UTF8
Codec ID/Info : UTF-8 Plain Text
Title : forced
Default : Yes
Forced : Yes
Text #2
ID : 5
Format : UTF-8
Codec ID : S_TEXT/UTF8
Codec ID/Info : UTF-8 Plain Text
Language : English
Default : No
Forced : No
Menu
00:00:00.000 : en:1
00:05:40.000 : en:2
00:07:46.000 : en:3
00:12:05.000 : en:4
00:14:44.000 : en:5
00:17:42.000 : en:6
00:22:03.000 : en:7
00:25:33.000 : en:8
00:32:28.000 : en:9
00:35:40.000 : en:10
00:38:05.000 : en:11
00:45:51.000 : en:12
00:48:43.000 : en:13
00:52:27.000 : en:14
01:01:53.000 : en:15
01:06:10.000 : en:16
01:10:17.000 : en:17
01:16:39.000 : en:18
Скриншоты
Скачать

Скачать торрент!

Как скачивать? · Что такое торрент? · Рейтинг и ограничения

Сайт не распространяет и не хранит электронные версии произведений, а лишь предоставляет доступ к создаваемому пользователями каталогу ссылок на торрент-файлы, которые содержат только списки хеш-сумм

[Профиль] [ЛС]
Показать сообщения:    
Ответить на тему

Текущее время: Сегодня 21:24

Часовой пояс: GMT + 4



Вы не можете начинать темы
Вы не можете отвечать на сообщения
Вы не можете редактировать свои сообщения
Вы не можете удалять свои сообщения
Вы не можете голосовать в опросах
Вы не можете прикреплять файлы к сообщениям
Вы не можете скачивать файлы