Девушка с жемчужной серёжкой / Girl with a Pearl Earring (Питер Веббер / Peter Webber) [2003, Великобритания, Люксембург, драма, мелодрама, биография, BDRemux 1080p] AVO (Юрий Сербин) + MVO + Sub Rus, Eng + Ukr + Original Eng

Ответить на тему
 
Автор Сообщение

user ®

Стаж: 7 лет 7 месяцев

Сообщений: 20008

Пост Пост: #1 от 05-Янв-2016 22:54

[Цитировать]

Девушка с жемчужной серёжкой / Girl with a Pearl Earring
Страна: Великобритания, Люксембург
Студия: Archer Street Productions, Delux Productions, Pathé Pictures International
Жанр: драма, мелодрама, биография
Год выпуска: 2003
Продолжительность: 01:39:58
Перевод 1: Профессиональный (многоголосый закадровый)
Перевод 2: Авторский (одноголосый закадровый) Юрий Сербин
Cубтитры: русские, английские
Оригинальная аудиодорожка: английский
Режиссер: Питер Веббер / Peter Webber
В ролях: Колин Фёрт, Скарлетт Йоханссон, Том Уилкинсон, Джуди Парфитт, Киллиан Мёрфи, Эсси Дэвис, Джоэнна Скэнлэн, Алакина Манн, Крис Макхаллем, Гэбриэлль Рейди ...
Описание: 1665 год, голландский город Дельфт. В дом художника Йоханнеса Вермеера приходит 16-летняя девушка Гриет, чтобы работать служанкой. Вскоре она обращает на себя внимание живописца, потому что, несмотря на свой юный возраст, Гриет тонко чувствует не только результат творчества, но и сам процесс, механизм создания полотен, которым суждено будет жить в веках. Однажды Вермеер обращается с просьбой к Гриет — позировать ему для новой картины…
II Сэмпл II IMDB II
Доп. информация:
HD звук авторского перевода сделан с голоса.
За существование авторского перевода спасибо лично Юрию Сербину и пользователям сайта Е180: Рурони Синта, Nadoelo, sir, xfiles, kass, 2vova2, ariawest, ilbilb, Drodder, SilverBeast, Bilko, zeleniy.
Тип релиза: BDRemux 1080p (Girl with a Pearl Earring 2003 1080p GER Blu-ray VC-1 DTS-HD MA 5.1-CiNEMATiC)
Контейнер: MKV
Видео: VC-1 / 1920x1080 / 16:9 / 23.976fps / 17995 kbps / Advanced@L3
Аудио 1: DTS-HD MA / 48.0 KHz / 6ch. / 2024 kbps / 16bit (core DTS / 48.0 KHz / 6ch. / 1509kbps / 16bit) / AVO / Юрий Сербин
Аудио 2: AC3 / 48.0 KHz / 6ch. / 448kbps / rus / MVO
Аудио 3: AC3 / 48.0 KHz / 2ch. / 192kbps / Ukr
Аудио 4: DTS-HD MA / 48.0 KHz / 6ch. / 2024 kbps / 16bit (core DTS / 48.0 KHz / 6ch. / 1509kbps / 16bit) eng
Формат субтитров: softsub (SRT)
MediaInfo
Общее
Уникальный идентификатор : 247608029699216430362155181489199003974 (0xBA4792672D1E1DA093E43FAB37943946)
Полное имя : H:\!_Torrent\Girl.with.a.Pearl.Earring.2003.BDRemux.1080p.by.vedigo.mkv
Формат : Matroska
Версия формата : Version 4 / Version 2
Размер файла : 15,9 Гбайт
Продолжительность : 1 ч. 39 м.
Общий поток : 22,7 Мбит/сек
Название фильма : Girl.with.a.Pearl.Earring.2003.BDRemux.1080p.by.vedigo
Дата кодирования : UTC 2016-01-01 03:54:48
Программа кодирования : mkvmerge v8.7.0 ('All of the above') 64bit
Библиотека кодирования : libebml v1.3.3 + libmatroska v1.4.4
Видео
Идентификатор : 1
Формат : VC-1
Профиль формата : Advanced@L3
Идентификатор кодека : V_MS/VFW/FOURCC / WVC1
Идентификатор кодека/Подсказка : Microsoft
Продолжительность : 1 ч. 39 м.
Битрейт : 18,0 Мбит/сек
Ширина : 1920 пикселей
Высота : 1080 пикселей
Соотношение сторон : 16:9
Режим частоты кадров : Постоянный
Частота кадров : 23,976 (24000/1001) кадра/сек
Цветовое пространство : YUV
Субдискретизация насыщенности : 4:2:0
Битовая глубина : 8 бит
Тип развёртки : Прогрессивная
Метод сжатия : С потерями
Бит/(Пиксели*Кадры) : 0.362
Размер потока : 12,6 Гбайт (79%)
Заголовок : Girl.with.a.Pearl.Earring.2003.BDRemux.1080p.by.vedigo
Default : Да
Forced : Нет
Аудио #1
Идентификатор : 2
Формат : DTS
Формат/Информация : Digital Theater Systems
Профиль формата : MA / Core
Режим : 16
Параметр Endianness формата : Big
Идентификатор кодека : A_DTS
Продолжительность : 1 ч. 39 м.
Вид битрейта : Переменный / Постоянный
Битрейт : 2048 Кбит/сек / 1509 Кбит/сек
Каналы : 6 каналов
Расположение каналов : Front: L C R, Side: L R, LFE
Частота : 48,0 КГц
Частота кадров : 93,750 кадра/сек (512 spf)
Битовая глубина : 16 бит
Метод сжатия : Без потерь / Lossy
Размер потока : 1,42 Гбайт (9%)
Заголовок : AVO @ Юрий Сербин
Язык : Russian
Default : Да
Forced : Нет
Аудио #2
Идентификатор : 3
Формат : AC-3
Формат/Информация : Audio Coding 3
Расширение режима : CM (complete main)
Параметр Endianness формата : Big
Идентификатор кодека : A_AC3
Продолжительность : 1 ч. 39 м.
Вид битрейта : Постоянный
Битрейт : 448 Кбит/сек
Каналы : 6 каналов
Расположение каналов : Front: L C R, Side: L R, LFE
Частота : 48,0 КГц
Частота кадров : 31,250 кадров/сек (1536 spf)
Метод сжатия : С потерями
Размер потока : 320 Мбайт (2%)
Заголовок : MVO
Язык : Russian
Default : Нет
Forced : Нет
Аудио #3
Идентификатор : 4
Формат : AC-3
Формат/Информация : Audio Coding 3
Расширение режима : CM (complete main)
Параметр Endianness формата : Big
Идентификатор кодека : A_AC3
Продолжительность : 1 ч. 39 м.
Вид битрейта : Постоянный
Битрейт : 192 Кбит/сек
Каналы : 2 канала
Расположение каналов : Front: L R
Частота : 48,0 КГц
Частота кадров : 31,250 кадров/сек (1536 spf)
Метод сжатия : С потерями
Размер потока : 137 Мбайт (1%)
Заголовок : Ukr
Язык : Ukrainian
Default : Нет
Forced : Нет
Аудио #4
Идентификатор : 5
Формат : DTS
Формат/Информация : Digital Theater Systems
Профиль формата : MA / Core
Режим : 16
Параметр Endianness формата : Big
Идентификатор кодека : A_DTS
Продолжительность : 1 ч. 39 м.
Вид битрейта : Переменный / Постоянный
Битрейт : 2048 Кбит/сек / 1509 Кбит/сек
Каналы : 6 каналов
Расположение каналов : Front: L C R, Side: L R, LFE
Частота : 48,0 КГц
Частота кадров : 93,750 кадра/сек (512 spf)
Битовая глубина : 16 бит
Метод сжатия : Без потерь / Lossy
Размер потока : 1,41 Гбайт (9%)
Заголовок : Original
Язык : English
Default : Нет
Forced : Нет
Текст #1
Идентификатор : 6
Формат : UTF-8
Идентификатор кодека : S_TEXT/UTF8
Идентификатор кодека/Информация : UTF-8 Plain Text
Продолжительность : 1 ч. 34 м.
Битрейт : 42 бит/сек
Count of elements : 495
Размер потока : 29,6 Кбайт (0%)
Заголовок : subtitle rus
Язык : Russian
Default : Нет
Forced : Нет
Текст #2
Идентификатор : 7
Формат : UTF-8
Идентификатор кодека : S_TEXT/UTF8
Идентификатор кодека/Информация : UTF-8 Plain Text
Продолжительность : 1 ч. 30 м.
Битрейт : 24 бит/сек
Count of elements : 613
Размер потока : 16,4 Кбайт (0%)
Заголовок : subtitle eng
Язык : English
Default : Нет
Forced : Нет
Меню
00:00:00.000 : :Глава 01
00:07:27.029 : :Глава 02
00:12:21.991 : :Глава 03
00:17:19.663 : :Глава 04
00:25:03.210 : :Глава 05
00:34:07.648 : :Глава 06
00:41:06.130 : :Глава 07
00:49:21.124 : :Глава 08
00:59:49.447 : :Глава 09
01:12:34.558 : :Глава 10
01:21:48.778 : :Глава 11
01:28:52.118 : :Глава 12
01:33:17.425 : :Глава 13
Скриншоты
Скачать

Скачать торрент!

Как скачивать? · Что такое торрент? · Рейтинг и ограничения

Сайт не распространяет и не хранит электронные версии произведений, а лишь предоставляет доступ к создаваемому пользователями каталогу ссылок на торрент-файлы, которые содержат только списки хеш-сумм

[Профиль] [ЛС]
Показать сообщения:    
Ответить на тему

Текущее время: Сегодня 22:03

Часовой пояс: GMT + 4



Вы не можете начинать темы
Вы не можете отвечать на сообщения
Вы не можете редактировать свои сообщения
Вы не можете удалять свои сообщения
Вы не можете голосовать в опросах
Вы не можете прикреплять файлы к сообщениям
Вы не можете скачивать файлы