Северная пограничная линия / Забытая битва / Битва Ёнпхёндо / Northern limit line / The forgotten battle / N.L.L: Yeonpyeong Haejeon (Ким Хак-Сун / Kim Hak-Soon) [2015, Южная Корея, драма, военный, история, HDRip] DVO

Ответить на тему
 
Автор Сообщение

user ®

Стаж: 10 лет

Сообщений: 18979

Пост Пост: #1 от 05-Янв-2016 04:21

[Цитировать]

Северная пограничная линия /
Забытая битва /
Битва Ёнпхёндо /
Northern limit line /
The forgotten battle /

N.L.L: Yeonpyeong Haejeon
Фильмы, основанные на реальных событиях - они особенные. Страна: Южная Корея, Well Go USA Entertaiment, Rosetta Cinema, IBK
Жанр: драма, военный, исторический
Год выпуска: 2015
Продолжительность: 02:10:15
Перевод: Любительский (двухголосый закадровый), 2D (den904&DeadSno)
Cубтитры: нет
Оригинальная аудиодорожка: corean
Режиссер: Ким Хак-Сун / Kim Hak-Soon
В ролях: Ким Му Ёль / Kim Mu Yeol, Чин Гу / Jin Goo, Ли Хён У / Lee Hyun Woo, Ли Ван / Lee Wan
Описание:В основу этой военной истории фильма были положены реальные и драматические события.
На водных просторах Желтого моря существует спорная, между Южной и Северной Кореей, территория, расположенная близ острова, под названием Ёнпхёндо, где уже традиционно несут пограничную службу патрульные катера обоих враждующих сторон. В 2002 году, 29 июня, когда вся страна замерла у экранов телевизоров, в ожидании долгожданного матча, между сборными Южной Кореи и Турции на чемпионате мира по футболу, моряки военного южнокорейского судна вступают в отчаянное сражение со своим опаснейшим противником. Северокорейские военные внезапно атаковали патруль Южной Кореи, пытаясь взять под свой контроль острова, расположенные ниже северной пограничной линии и закреплённые за Южной Кореей, согласно договору о перемирии 50-летней давности. Это нападение привело к неминуемой битве, которая длилась всего 20 минут, но невзирая на короткую продолжительность сражения, пограничники понесли невосполнимые потери. Через что придется пройти главным героям? Как будут противостоять морские команды сражению? Кто выйдет победителем? Кто останется навечно в морской пучине. Тяжелые и страшные минуты для отважных мореплавателей будут определенным испытанием и отстаиванием своих ценностей и установок. Но стоит ли человеческая жизнь того, за что сражаются главные персонажи.
Командование знало об активности противника и выдвижению их военных сил к спорной территории, но не смогло предугадать планы соседей, а также помочь своим людям и прибывшее подкрепление смогло вывести в госпиталь лишь нескольких раненных.
Имена героев тут же забудут, ведь, по – мнению высокопоставленных чинов, данное событие лучше скрыть от общественности.
Инцидент не был достаточно освещен в прессе, а государственные СМИ так и не обнародовали имена забытых героев.
Просмотр фильма для зрителей, незнакомых с инцидентом, будет выглядеть, словно незваный гость на национальной поминальной службе, но интервью с реальными выжившими, показанными во время финальных титров обеспечивают большее влияние и резонанс, чем может собрать остальная часть фильма.
Доп. информация:
Сэмпл: http://multi-up.com/1082497
Качество видео: HDRip
Формат видео: AVI
Видео: XviD build 73, 720x304 (2.35:1), 24 fps, 8 bit, 1152 Кбит/сек
Аудио: AC3, 48,0 КГц, 16 бит, 448 Кбит/сек, 6 ch
MediaInfo
Общее
Полное имя : D:\Северная пограничная линия\N.L.L Yeonpyeong Haejeon.L2.2015.HDRip.avi
Формат : AVI
Формат/Информация : Audio Video Interleave
Размер файла : 1,46 Гбайт
Продолжительность : 2 ч. 10 м.
Общий поток : 1609 Кбит/сек
Программа кодирования : VirtualDubMod 1.5.10.3 | www.virtualdub-fr.org || (build 2550/release)
Библиотека кодирования : VirtualDubMod build 2550/release
Видео
Идентификатор : 0
Формат : MPEG-4 Visual
Профиль формата : Advanced Simple@L5
Параметр BVOP формата : 1
Параметр QPel формата : Нет
Параметр GMC формата : Без точки перехода
Параметр матрицы формата : Default (MPEG)
Идентификатор кодека : XVID
Идентификатор кодека/Подсказка : XviD
Продолжительность : 2 ч. 10 м.
Битрейт : 1152 Кбит/сек
Ширина : 720 пикселей
Высота : 304 пикселя
Соотношение сторон : 2,35:1
Частота кадров : 24,000 кадра/сек
Цветовое пространство : YUV
Субдискретизация насыщенности : 4:2:0
Битовая глубина : 8 бит
Тип развёртки : Прогрессивная
Метод сжатия : С потерями
Бит/(Пиксели*Кадры) : 0.219
Размер потока : 1,05 Гбайт (72%)
Библиотека кодирования : XviD 73
Аудио
Идентификатор : 1
Формат : AC-3
Формат/Информация : Audio Coding 3
Расширение режима : CM (complete main)
Параметр Endianness формата : Big
Идентификатор кодека : 2000
Продолжительность : 2 ч. 10 м.
Вид битрейта : Постоянный
Битрейт : 448 Кбит/сек
Каналы : 6 каналов
Расположение каналов : Front: L C R, Side: L R, LFE
Частота : 48,0 КГц
Битовая глубина : 16 бит
Метод сжатия : С потерями
Размер потока : 417 Мбайт (28%)
Выравнивание : Разделение по промежуткам
Продолжительность промежутка : 42 мс. (1,00 видеокадр)
Время предзагрузки промежутка : 500 мс.
Скриншот c названием фильма Скриншоты
Скачать

Скачать торрент! Северная пограничная линия / Забытая битва / Битва Ёнпхёндо / Northern limit line / The forgotten battle / N.L.L: Yeonpyeong Haejeon (Ким Хак-Сун / Kim Hak-Soon) [2015, Южная Корея, драма, военный, история, HDRip] DVO

Как скачивать? · Что такое торрент? · Рейтинг и ограничения

Сайт не распространяет и не хранит электронные версии произведений, а лишь предоставляет доступ к создаваемому пользователями каталогу ссылок на торрент-файлы, которые содержат только списки хеш-сумм

загрузка...
[Профиль] [ЛС]
Показать сообщения:    
Ответить на тему

Текущее время: Сегодня 07:23

Часовой пояс: GMT + 4



Вы не можете начинать темы
Вы не можете отвечать на сообщения
Вы не можете редактировать свои сообщения
Вы не можете удалять свои сообщения
Вы не можете голосовать в опросах
Вы не можете прикреплять файлы к сообщениям
Вы не можете скачивать файлы