Рождественская ночь / Holy Night! (Хуан Галиньянес / Juan Galiñanes) [2011, Испания, мультфильм, комедия, DVB] Dub

Ответить на тему
 
Автор Сообщение

user ®

Стаж: 13 лет

Сообщений: 15041

Пост Пост: #1 от 05-Янв-2016 01:15

[Цитировать]

Рождественская ночь / Holy Night!-Страна: Испания
Жанр: мультфильм, комедия
Продолжительность: 01:31:50
Год выпуска: 2011
Перевод: Профессиональный (дублированный)
Русские субтитры: нет-Режиссёр: Хуан Галиньянес / Juan Galiñanes- | Релиз: -Описание: В одной гостиной безмятежно уживались два мира игрушек. С одной стороны Санта Клаус и его эльфы, с другой - волхвы и другие действующие лица сцены Рождества Иисуса. В канун Рождества происходит переполох! Когда все уже было готово к празднику, оказалось, что кто-то украл сани Санта Клауса и малыша Иисуса. Праздник в опасности, игрушки обвиняют друг друга. Кто же на самом деле оказался похитителем?-Семпл: http://sendfile.su/1189787-Качество: DVB
Формат: MPG
Видео: 720x576 (4:3) @ 768x576, 25.000 fps, MPEG-2 Video, ~3033 Kbps, 0.293 bits/pixel
Аудио: Русский, 48.0 KHz, MPEG-1 Audio layer 2, 2 ch, 192 kbps
Субтитры: отсутствуют
MediaInfo
GeneralComplete name : Holy Night! 2011 Gulli Dub Kirillitsa 2013.mpgFormat : MPEG-PSFile size : 2.11 GiBDuration : 1h 31mnOverall bit rate mode : VariableOverall bit rate : 3 291 Kbps
VideoID : 224 (0xE0)Format : MPEG VideoFormat version : Version 2Format profile : Main@MainFormat settings, BVOP : YesFormat settings, Matrix : CustomFormat settings, GOP : VariableFormat settings, picture structure : FrameDuration : 1h 31mnBit rate mode : VariableBit rate : 3 033 KbpsMaximum bit rate : 15.0 MbpsWidth : 720 pixelsHeight : 576 pixelsDisplay aspect ratio : 4:3Frame rate : 25.000 fpsStandard : PALColor space : YUVChroma subsampling : 4:2:0Bit depth : 8 bitsScan type : InterlacedScan order : Top Field FirstCompression mode : LossyBits/(Pixel*Frame) : 0.293Time code of first frame : 00:00:00:00Time code source : Group of pictures headerGOP, Open/Closed : OpenGOP, Open/Closed of first frame : ClosedStream size : 1.95 GiB (92%)
AudioID : 192 (0xC0)Format : MPEG AudioFormat version : Version 1Format profile : Layer 2Duration : 1h 31mnBit rate mode : ConstantBit rate : 192 KbpsChannel(s) : 2 channelsSampling rate : 48.0 KHzCompression mode : LossyStream size : 126 MiB (6%)
Скриншоты
Скачать

Скачать торрент! Рождественская ночь / Holy Night! (Хуан Галиньянес / Juan Galiñanes) [2011, Испания, мультфильм, комедия, DVB] Dub

Как скачивать? · Что такое торрент? · Рейтинг и ограничения

Сайт не распространяет и не хранит электронные версии произведений, а лишь предоставляет доступ к создаваемому пользователями каталогу ссылок на торрент-файлы, которые содержат только списки хеш-сумм

[Профиль] [ЛС]
Показать сообщения:    
Ответить на тему

Текущее время: Сегодня 23:59

Часовой пояс: GMT + 4



Вы не можете начинать темы
Вы не можете отвечать на сообщения
Вы не можете редактировать свои сообщения
Вы не можете удалять свои сообщения
Вы не можете голосовать в опросах
Вы не можете прикреплять файлы к сообщениям
Вы не можете скачивать файлы