Шанхайский поцелуй / Shanghai Kiss (Керн Конвайзер / Kern Konwiser, Дэвид Рен / David Ren) [2007, США, Китай, Гонконг, драма, мелодрама, комедия, BDRip 720p] MVO + Sub Eng + Original Eng

Ответить на тему
 
Автор Сообщение

user ®

Стаж: 7 лет 7 месяцев

Сообщений: 20008

Пост Пост: #1 от 04-Янв-2016 19:03

[Цитировать]

Шанхайский поцелуй / Shanghai Kiss
Страна: США, Китай, Гонконг
Студия: Bigfoot Entertainment, China Film Group Corporation, Fourth Production Company Film Group, The, Konw
Жанр: Драма, мелодрама, комедия
Год выпуска: 2007
Продолжительность: 01:45:52
Перевод: Профессиональный (многоголосый закадровый)
Cубтитры: английские
Оригинальная аудиодорожка: английский
Режиссер: Керн Конвайзер / Kern Konwiser, Дэвид Рен / David Ren
В ролях: Хейден Панеттьери, Кен Люн, Келли Ху, Джоэл Мур, Джеймс Хонг, Кэтлин Ланкастер, Лорна Скотт, Спенсер Редфорд, Стивен Герард Коннелл, Брайан Гарднер, Тимоти Боттомс, Саммер Элтис, Оливер Ян, Байрон Манн, Чен Ли
Описание: Отчаянный китайско-американский актер, который случайным образом оказался увлечен ученицей старших классов, узнает что получил в наследство дом своей бабушки в Шанхае. Взращенный в Америке, герой едет в Китай, чтобы приблизиться к своим предкам, оставляя позади возможно единственную девушку, которая когда-либо любила его.


Сэмпл
Тип релиза: BDRip 720p
Контейнер: MKV
Видео: MPEG-4 AVC, 9062 Кбит/с, 1278x720
Аудио 1: Русский (AC3, 2 ch, 192 Кбит/с) Профессиональный многоголосый
Аудио 2: Английский (AC3, 2 ch, 640 Кбит/с) Original
MediaInfo
Общее
Уникальный идентификатор : 209105716378450403097846766366690047454 (0x9D504BCB58DA46B38CD84C0EA312F5DE)
Полное имя : F:\Раздача HD\Shanghai.Kiss.2007.720p.BluRay Rus.Eng-HDCLUB.mkv
Формат : Matroska
Версия формата : Version 4 / Version 2
Размер файла : 7,46 Гбайт
Продолжительность : 1 ч. 45 м.
Общий поток : 10,1 Мбит/сек
Название фильма : Shanghai Kiss (2007) - Release for HDCLUB
Дата кодирования : UTC 2015-12-10 15:39:38
Программа кодирования : mkvmerge v6.2.0 ('Promised Land') built on Apr 28 2013 12:22:01
Библиотека кодирования : libebml v1.3.0 + libmatroska v1.4.0
Видео
Идентификатор : 1
Формат : AVC
Формат/Информация : Advanced Video Codec
Профиль формата : High@L4.1
Параметр CABAC формата : Да
Параметр ReFrames формата : 9 кадров
Идентификатор кодека : V_MPEG4/ISO/AVC
Продолжительность : 1 ч. 45 м.
Битрейт : 9062 Кбит/сек
Ширина : 1278 пикселей
Высота : 720 пикселей
Соотношение сторон : 16:9
Режим частоты кадров : Постоянный
Частота кадров : 24,000 кадра/сек
Цветовое пространство : YUV
Субдискретизация насыщенности : 4:2:0
Битовая глубина : 8 бит
Тип развёртки : Прогрессивная
Бит/(Пиксели*Кадры) : 0.410
Размер потока : 6,70 Гбайт (90%)
Библиотека кодирования : x264 core 146 r2538kMod 121396c
Настройки программы : cabac=1 / ref=9 / deblock=1:-3:-3 / analyse=0x3:0x133 / me=umh / subme=10 / psy=1 / fade_compensate=0.00 / psy_rd=1.10:0.00 / mixed_ref=1 / me_range=24 / chroma_me=1 / trellis=2 / 8x8dct=1 / cqm=0 / deadzone=21,11 / fast_pskip=0 / chroma_qp_offset=-2 / threads=12 / lookahead_threads=2 / sliced_threads=0 / nr=0 / decimate=0 / interlaced=0 / bluray_compat=0 / constrained_intra=0 / fgo=0 / bframes=7 / b_pyramid=2 / b_adapt=2 / b_bias=0 / direct=3 / weightb=1 / open_gop=0 / weightp=2 / keyint=250 / keyint_min=24 / scenecut=40 / intra_refresh=0 / rc_lookahead=60 / rc=crf / mbtree=0 / crf=16.8000 / qcomp=0.60 / qpmin=0 / qpmax=69 / qpstep=4 / vbv_maxrate=62500 / vbv_bufsize=78125 / crf_max=0.0 / nal_hrd=none / filler=0 / ip_ratio=1.30 / pb_ratio=1.20 / aq=3:0.68
Язык : English
Default : Да
Forced : Нет
Коэффициенты матрицы : BT.709
Аудио #1
Идентификатор : 2
Формат : AC-3
Формат/Информация : Audio Coding 3
Расширение режима : CM (complete main)
Параметр Endianness формата : Big
Идентификатор кодека : A_AC3
Продолжительность : 1 ч. 45 м.
Вид битрейта : Постоянный
Битрейт : 192 Кбит/сек
Каналы : 2 канала
Расположение каналов : Front: L R
Частота : 48,0 КГц
Битовая глубина : 16 бит
Метод сжатия : С потерями
Размер потока : 145 Мбайт (2%)
Заголовок : Многоголосый закадровый
Язык : Russian
Default : Да
Forced : Нет
Аудио #2
Идентификатор : 3
Формат : AC-3
Формат/Информация : Audio Coding 3
Расширение режима : CM (complete main)
Параметр Endianness формата : Big
Идентификатор кодека : A_AC3
Продолжительность : 1 ч. 45 м.
Вид битрейта : Постоянный
Битрейт : 640 Кбит/сек
Каналы : 2 канала
Расположение каналов : Front: L R
Частота : 48,0 КГц
Битовая глубина : 16 бит
Метод сжатия : С потерями
Размер потока : 485 Мбайт (6%)
Язык : English
Default : Нет
Forced : Нет
Текст
Идентификатор : 4
Формат : UTF-8
Идентификатор кодека : S_TEXT/UTF8
Идентификатор кодека/Информация : UTF-8 Plain Text
Язык : English
Default : Нет
Forced : Нет
Меню
00:00:00.000 : en:00:00:00.000
00:10:05.000 : en:00:10:05.000
00:20:16.125 : en:00:20:16.125
00:30:04.958 : en:00:30:04.958
00:40:06.458 : en:00:40:06.458
00:50:46.667 : en:00:50:46.667
01:01:41.583 : en:01:01:41.583
01:10:31.625 : en:01:10:31.625
01:20:48.292 : en:01:20:48.292
01:30:23.958 : en:01:30:23.958
Скриншоты
Скачать

Скачать торрент!

Как скачивать? · Что такое торрент? · Рейтинг и ограничения

Сайт не распространяет и не хранит электронные версии произведений, а лишь предоставляет доступ к создаваемому пользователями каталогу ссылок на торрент-файлы, которые содержат только списки хеш-сумм

[Профиль] [ЛС]
Показать сообщения:    
Ответить на тему

Текущее время: Сегодня 10:03

Часовой пояс: GMT + 4



Вы не можете начинать темы
Вы не можете отвечать на сообщения
Вы не можете редактировать свои сообщения
Вы не можете удалять свои сообщения
Вы не можете голосовать в опросах
Вы не можете прикреплять файлы к сообщениям
Вы не можете скачивать файлы