Ветеран / Veteran / Beterang (Рю Сын Ван / Ryoo Seung-Wan) [2015, Южная Корея, боевик, драма, комедия, криминал, HDRip] DVO

Ответить на тему
 
Автор Сообщение

user ®

Стаж: 13 лет

Сообщений: 15071

Пост Пост: #1 от 04-Янв-2016 12:51

[Цитировать]

Ветеран / Veteran / Beterang Страна: Южная Корея
Жанр: боевик, драма, комедия, криминал
Год выпуска: 2015
Продолжительность: 02:03:39
Перевод: Любительский (двухголосый закадровый), русская озвучка Колобок
Cубтитры: нет
Оригинальная аудиодорожка: corean
Режиссер: Рю Сын Ван / Ryoo Seung-Wan
В ролях: Хван Чон-мин, Ю А-ин, Ю Хэ-чжин, О Даль-су, Чан Ю-чу, Ким Ши-у, Чон Вун-ин, Чон Ман-сик, Сон Ю-чхан
Описание: Простой и динамичный детектив-боевик с серьезным мордобоем, жестких сцен и претензией на «подъем серьезных общественных вопросов» - противостоянии неравнодушного офицера полиции (Хван Чжон Мин) с наследником на "пост" крупной корпорации «мажористого молокососа» (Ю А Ин), которого детектив пытается засадить за решетку. Но сделать это не так просто, как кажется. Получится ли у детектива довести дело до конца?Присутствует ненормативная лексика.

Сэмпл: http://multi-up.com/1082326
Качество видео: HDRip
Формат видео: AVI
Видео: XviD build 50, 720x304 (2.37:1), 23.976 fps, 0.27 bit, 1393 kbps avg
Аудио: AC3, 48,0 КГц, 16 бит, 192 Кбит/сек, 2 ch
MediaInfo
Общее
Полное имя : D:\Ветеран\Veteran.2015.HDRip.avi
Формат : AVI
Формат/Информация : Audio Video Interleave
Размер файла : 1,38 Гбайт
Продолжительность : 2 ч. 3 м.
Общий поток : 1595 Кбит/сек
Программа кодирования : VirtualDubMod 1.5.10.3 | www.virtualdub-fr.org || (build 2550/release)
Библиотека кодирования : VirtualDubMod build 2550/release
Видео
Идентификатор : 0
Формат : MPEG-4 Visual
Профиль формата : Advanced Simple@L5
Параметр BVOP формата : 1
Параметр QPel формата : Нет
Параметр GMC формата : Без точки перехода
Параметр матрицы формата : Default (H.263)
Идентификатор кодека : XVID
Идентификатор кодека/Подсказка : XviD
Продолжительность : 2 ч. 3 м.
Битрейт : 1394 Кбит/сек
Ширина : 720 пикселей
Высота : 304 пикселя
Соотношение сторон : 2,35:1
Частота кадров : 23,976 кадра/сек
Цветовое пространство : YUV
Субдискретизация насыщенности : 4:2:0
Битовая глубина : 8 бит
Тип развёртки : Прогрессивная
Метод сжатия : С потерями
Бит/(Пиксели*Кадры) : 0.266
Размер потока : 1,20 Гбайт (87%)
Библиотека кодирования : XviD 1.2.1 (UTC 2008-12-04)
Аудио
Идентификатор : 1
Формат : AC-3
Формат/Информация : Audio Coding 3
Расширение режима : CM (complete main)
Параметр Endianness формата : Big
Идентификатор кодека : 2000
Продолжительность : 2 ч. 3 м.
Вид битрейта : Постоянный
Битрейт : 192 Кбит/сек
Каналы : 2 канала
Расположение каналов : Front: L R
Частота : 48,0 КГц
Битовая глубина : 16 бит
Метод сжатия : С потерями
Размер потока : 170 Мбайт (12%)
Выравнивание : Разделение по промежуткам
Продолжительность промежутка : 42 мс. (1,00 видеокадр)
Время предзагрузки промежутка : 500 мс.
Скриншот c названием фильма Скриншоты
Скачать

Скачать торрент! Ветеран / Veteran / Beterang (Рю Сын Ван / Ryoo Seung-Wan) [2015, Южная Корея, боевик, драма, комедия, криминал, HDRip] DVO

Как скачивать? · Что такое торрент? · Рейтинг и ограничения

Сайт не распространяет и не хранит электронные версии произведений, а лишь предоставляет доступ к создаваемому пользователями каталогу ссылок на торрент-файлы, которые содержат только списки хеш-сумм

[Профиль] [ЛС]
Показать сообщения:    
Ответить на тему

Текущее время: Сегодня 17:35

Часовой пояс: GMT + 4



Вы не можете начинать темы
Вы не можете отвечать на сообщения
Вы не можете редактировать свои сообщения
Вы не можете удалять свои сообщения
Вы не можете голосовать в опросах
Вы не можете прикреплять файлы к сообщениям
Вы не можете скачивать файлы