Аллегро с огнем (Владимир Стрелков) [1979, военный, DVDRip]

Ответить на тему
 
Автор Сообщение

user ®

Стаж: 7 лет 7 месяцев

Сообщений: 20008

Пост Пост: #1 от 04-Янв-2016 06:39

[Цитировать]

Аллегро с огнем
Жанр: военный
Год выпуска: 1979
Продолжительность: 01:25:47

Режиссёр: Владимир Стрелков
В ролях: Владимир Заманский, Валентин Голубенко, Сергей Лосев, Сергей Полежаев, Наум Кавуновский, Людмила Ярошенко, Федор Валиков, Александр Федоров, Василий Векшин, Юрий Богданов
Описание: В июне 1941 года фашисты попытались заблокировать Черноморский флот, забросав фарватер новыми сверхсекретными магнитно-акустическими минами. Для обезвреживания этого грозного оружия была создана особая группа профессионалов-минеров...
Качество видео: [url=http://***/forum/viewtopic.php?t=287504]DVDRip[/url]
Формат видео: AVI
Видео: 672x384 (1.75:1), 25 fps, XviD build 73 ~2033 kbps avg, 0.32 bit/pixel
Аудио: 48 kHz, AC3 Dolby Digital, 3/2 (L,C,R,l,r) + LFE ch, ~384 kbps


Сравнение
[url=http://***/forum/viewtopic.php?t=2460260]http://***/forum/viewtopic.php?t=2460260[/url]
http://screenshotcomparison.com/comparison/156659
MediaInfo
Общее
Полное имя : H:\Аллегро.с.огнем.1979.dvdrip_[1.46]_[teko].avi
Формат : AVI
Формат/Информация : Audio Video Interleave
Размер файла : 1,45 Гбайт
Продолжительность : 1 ч. 25 м.
Общий поток : 2427 Кбит/сек
Программа кодирования : VirtualDubMod 1.5.10.3 | www.virtualdub-fr.org || (build 2550/release)
Библиотека кодирования : VirtualDubMod build 2550/release
Видео
Идентификатор : 0
Формат : MPEG-4 Visual
Профиль формата : Advanced Simple@L5
Параметр BVOP формата : 1
Параметр QPel формата : Нет
Параметр GMC формата : Без точки перехода
Параметр матрицы формата : Выборочная
Идентификатор кодека : XVID
Идентификатор кодека/Подсказка : XviD
Продолжительность : 1 ч. 25 м.
Битрейт : 2033 Кбит/сек
Ширина : 672 пикселя
Высота : 384 пикселя
Соотношение сторон : 16:9
Частота кадров : 25,000 кадров/сек
Цветовое пространство : YUV
Субдискретизация насыщенности : 4:2:0
Битовая глубина : 8 бит
Тип развёртки : Прогрессивная
Метод сжатия : С потерями
Бит/(Пиксели*Кадры) : 0.315
Размер потока : 1,22 Гбайт (84%)
Библиотека кодирования : XviD 73
Аудио
Идентификатор : 1
Формат : AC-3
Формат/Информация : Audio Coding 3
Расширение режима : CM (complete main)
Параметр Endianness формата : Big
Идентификатор кодека : 2000
Продолжительность : 1 ч. 25 м.
Вид битрейта : Постоянный
Битрейт : 384 Кбит/сек
Каналы : 6 каналов
Расположение каналов : Front: L C R, Side: L R, LFE
Частота : 48,0 КГц
Битовая глубина : 16 бит
Метод сжатия : С потерями
Размер потока : 236 Мбайт (16%)
Выравнивание : Разделение по промежуткам
Продолжительность промежутка : 40 мс. (1,00 видеокадр)
Время предзагрузки промежутка : 500 мс.
Скриншоты Релиз группы:
[url=http://***/forum/viewtopic.php?t=1677970] [/url]
--
Скачать

Скачать торрент!

Как скачивать? · Что такое торрент? · Рейтинг и ограничения

Сайт не распространяет и не хранит электронные версии произведений, а лишь предоставляет доступ к создаваемому пользователями каталогу ссылок на торрент-файлы, которые содержат только списки хеш-сумм

[Профиль] [ЛС]
Показать сообщения:    
Ответить на тему

Текущее время: Сегодня 02:12

Часовой пояс: GMT + 4



Вы не можете начинать темы
Вы не можете отвечать на сообщения
Вы не можете редактировать свои сообщения
Вы не можете удалять свои сообщения
Вы не можете голосовать в опросах
Вы не можете прикреплять файлы к сообщениям
Вы не можете скачивать файлы