Сказка о добре и вре... (Елена Шиляева) [2013, сказка, детский, HDRip]

Ответить на тему
 
Автор Сообщение

user ®

Стаж: 7 лет 7 месяцев

Сообщений: 20008

Пост Пост: #1 от 04-Янв-2016 00:24

[Цитировать]

Сказка о добре и вре...
Жанр: Сказка, детский
Год выпуска: 2013
Продолжительность: 01:28:30
Режиссёр: Елена Шиляева
В ролях: Маша Никишина, Макар Верговский, Михаил Малышев, Регина Шаталова, Татьяна Филоненко, Оксана Краскова, Павел Усов, Игорь Пантин, Евгений Сизов, Люба Бондарь, Игорь Двоеглазов
Описание: Трое современных ребят попадают в сказку, чтобы с помощью молодильных яблок вернуть молодость своей бабушке. Дети оказываются в стране Врандии, которой правит мадам Вра и её помощники Ап и Оп. Здесь они встречают принцессу Труэ, которая мечтает возродить страну Верландию, которой так гордились когда-то сказочные жители...
Доп. информация:
Сэмпл: http://multi-up.com/1074399
Формат видео: AVI
Качество видео: HDRip
Видео: XviD, 720x400, 25fps, 2129kbps
Аудио: AC3 Dolby Digital, 2ch, 44100Hz, 192kbps
MediaInfo
General
Complete name : Skazka.O.Dobre.I.Vre.2013.O.HDRip.1400.avi
Format : AVI
Format/Info : Audio Video Interleave
Format profile : OpenDML
File size : 1.44 GiB
Duration : 1h 28mn
Overall bit rate : 2 333 Kbps
Writing application : XviD4PSP 6.0 / 54.29.105
Video
ID : 0
Format : xvid
Codec ID : xvid
Duration : 1h 28mn
Bit rate : 2 129 Kbps
Width : 720 pixels
Height : 400 pixels
Display aspect ratio : 16:9
Frame rate : 25.000 fps
Bits/(Pixel*Frame) : 0.296
Stream size : 1.32 GiB (91%)
Audio
ID : 1
Format : AC-3
Format/Info : Audio Coding 3
Mode extension : CM (complete main)
Format settings, Endianness : Big
Codec ID : 2000
Duration : 1h 28mn
Bit rate mode : Constant
Bit rate : 192 Kbps
Channel(s) : 2 channels
Channel positions : Front: L R
Sampling rate : 44.1 KHz
Bit depth : 16 bits
Compression mode : Lossy
Stream size : 122 MiB (8%)
Alignment : Aligned on interleaves
Interleave, duration : 35 ms (0.87 video frame)
Скриншоты
Скачать

Скачать торрент!

Как скачивать? · Что такое торрент? · Рейтинг и ограничения

Сайт не распространяет и не хранит электронные версии произведений, а лишь предоставляет доступ к создаваемому пользователями каталогу ссылок на торрент-файлы, которые содержат только списки хеш-сумм

[Профиль] [ЛС]
Показать сообщения:    
Ответить на тему

Текущее время: Сегодня 15:52

Часовой пояс: GMT + 4



Вы не можете начинать темы
Вы не можете отвечать на сообщения
Вы не можете редактировать свои сообщения
Вы не можете удалять свои сообщения
Вы не можете голосовать в опросах
Вы не можете прикреплять файлы к сообщениям
Вы не можете скачивать файлы