Замороженные во времени / Застрявшие во времени / Frozen in Time (Алекс Люн / Alex Leung) [2014, США, Приключения, семейный, комедия, HDTVRip] Dub

Ответить на тему
 
Автор Сообщение

user ®

Стаж: 13 лет

Сообщений: 15041

Пост Пост: #1 от 03-Янв-2016 05:51

[Цитировать]

Замороженные во времени / Застрявшие во времени / Frozen in Time
Страна: США
Жанр: Приключения, семейный, комедия
Продолжительность: 00:43:49
Год выпуска: 2014
Перевод: Профессиональный (дублированный)
Русские субтитры: нет
Режиссёр: Алекс Люн / Alex Leung
Описание: Из-за своего непослушного характера и неусидчивости, Эрик и Пети оказались Затерявшиеся во времени. Родители всегда строго запрещали детям заходить в старую мастерскую деда, именно это стало причиной попасть туда любой ценой и нарушить родительский запрет. В канун Рождества Эрик и Пети все же попали туда и там на самом деле все было очень старым. Но больше всего, детей заинтересовали антикварные часы, которые уже давно не работали. Дети некоторое время поиграли ими и каким-то образом затерялись во времени. Они оказались между временем и пространством и теперь не знают как вернуться обратно. Смотрите мультфильм "Затерявшиеся во времени" и вы узнаете, смогут ли дети все исправить и встретить Рождество рядом с родными...
Семпл: http://multi-up.com/1082196
Качество: HDTVRip
Формат: AVI
Видео: MPEG4, XviD, 720x400 (16:9), 23.976 fps, 1 586 Kbps (0.230 bit/pixel)
Аудио: AC-3, 48.0 KHz, 2 ch, 192 Kbps, CBR - русский
Аудио 2: AC-3, 48.0 KHz, 6 ch, 448 Kbps, CBR - английский
Субтитры: нет
Подробные технические данные
ОбщееПолное имя : N:\Замороженные во времени.aviФормат : AVIФормат/Информация : Audio Video InterleaveРазмер файла : 702 МбайтПродолжительность : 43 м.Общий поток : 2240 Кбит/секНазвание фильма : Замороженные во времени / Застрявшие во времени / Frozen in Time (2014)Программа кодирования : VirtualDubMod 1.5.10.2 (build 2540/release)Библиотека кодирования : VirtualDubMod build 2540/releaseАвторское право : miha2154
ВидеоИдентификатор : 0Формат : MPEG-4 VisualПрофиль формата : Advanced Simple@L5Параметр BVOP формата : 1Параметр QPel формата : НетПараметр GMC формата : Без точки переходаПараметр матрицы формата : ВыборочнаяИдентификатор кодека : XVIDИдентификатор кодека/Подсказка : XviDПродолжительность : 43 м.Битрейт : 1586 Кбит/секШирина : 720 пикселейВысота : 400 пикселейСоотношение сторон : 16:9Частота кадров : 23,976 (24000/1001) кадра/секЦветовое пространство : YUVСубдискретизация насыщенности : 4:2:0Битовая глубина : 8 битТип развёртки : ПрогрессивнаяМетод сжатия : С потерямиБит/(Пиксели*Кадры) : 0.230Размер потока : 497 Мбайт (71%)Библиотека кодирования : XviD 65
Аудио #1Идентификатор : 1Формат : AC-3Формат/Информация : Audio Coding 3Расширение режима : CM (complete main)Параметр Endianness формата : BigИдентификатор кодека : 2000Продолжительность : 43 м.Вид битрейта : ПостоянныйБитрейт : 192 Кбит/секКаналы : 2 каналаРасположение каналов : Front: L RЧастота : 48,0 КГцЧастота кадров : 31,250 кадров/сек (1536 spf)Метод сжатия : С потерямиРазмер потока : 60,2 Мбайт (9%)Выравнивание : Разделение по промежуткамПродолжительность промежутка : 42 мс. (1,00 видеокадр)Время предзагрузки промежутка : 500 мс.Заголовок : Профессиональный (полное дублирование) Disney
Аудио #2Идентификатор : 2Формат : AC-3Формат/Информация : Audio Coding 3Расширение режима : CM (complete main)Параметр Endianness формата : BigИдентификатор кодека : 2000Продолжительность : 43 м.Вид битрейта : ПостоянныйБитрейт : 448 Кбит/секКаналы : 6 каналовРасположение каналов : Front: L C R, Side: L R, LFEЧастота : 48,0 КГцЧастота кадров : 31,250 кадров/сек (1536 spf)Метод сжатия : С потерямиРазмер потока : 140 Мбайт (20%)Выравнивание : Разделение по промежуткамПродолжительность промежутка : 42 мс. (1,00 видеокадр)Время предзагрузки промежутка : 500 мс.Заголовок : Английский
Скриншоты
Скачать

Скачать торрент! Замороженные во времени / Застрявшие во времени / Frozen in Time (Алекс Люн / Alex Leung) [2014, США, Приключения, семейный, комедия, HDTVRip] Dub

Как скачивать? · Что такое торрент? · Рейтинг и ограничения

Сайт не распространяет и не хранит электронные версии произведений, а лишь предоставляет доступ к создаваемому пользователями каталогу ссылок на торрент-файлы, которые содержат только списки хеш-сумм

[Профиль] [ЛС]
Показать сообщения:    
Ответить на тему

Текущее время: Сегодня 00:17

Часовой пояс: GMT + 4



Вы не можете начинать темы
Вы не можете отвечать на сообщения
Вы не можете редактировать свои сообщения
Вы не можете удалять свои сообщения
Вы не можете голосовать в опросах
Вы не можете прикреплять файлы к сообщениям
Вы не можете скачивать файлы