Купальская ночь / Купальская ноч (Валерий Басов) [1983, комедия, DVB-AVC]

Ответить на тему
 
Автор Сообщение

user ®

Стаж: 7 лет 7 месяцев

Сообщений: 20008

Пост Пост: #1 от 03-Янв-2016 02:48

[Цитировать]

Купальская ночь / Купальская ноч
Важно: язык релиза - белорусский
Жанр: комедия
Год выпуска: 1983
Продолжительность: 01:09:37
Режиссёр: Валерий Басов
В ролях: Вера Трофимова, Александр Жданович, Нина Русланова, Михаил Петров, Наталья Кофанова, Александр Беспалый, Геннадий Овсянников, Валерий Филатов, Алексей Дударев, Евгений Крыжановский, Юлия Мазанкина, Елена Фетисенко, Наталья Хорохорина, Андрей Астраух, Татьяна Крюк
Описание: Василий и Зося любят друг друга, но родители против их брака. Приближается праздник Ивана Купалы. В ночь можно узнать свою дальнейшую судьбу, можно очиститься от всего худого, набраться сил и здоровья. В эту волшебную ночь не спят, жгут костры, поют песни. В эту ночь происходят разные забавные приключения, веселые розыгрыши, а кому-то доведется испытать силу и очарование первой любви...
Доп. информация:
Сценарист: Алексей Дударев
Композитор: Виктор Помазов
Художник: Владимир Чернышёв
Производство: Белтелефильм

Релиз:
Запись потока *.ts с наземного цифрового телеканала "Беларусь 3", ремукс в *.mkv программой VideoReDo.
Благодарность: [url=http://***/forum/profile.php?mode=viewprofile&u=19346396]PavelDAS[/url] и [url=http://***/forum/tracker.php?rid=26682041]Bartimeyse[/url] за оказанную помощь.
За что им большое спасибо!
Мои раздачи
ВСЕ:
[url=http://***/forum/tracker.php?rid=9778909]http://***/forum/tracker.php?rid=9778909[/url]
[url=http://BY.***/forum/tracker.php?rid=9778909]http://BY.***/forum/tracker.php?rid=9778909[/url]
[url=http://UA.***/forum/tracker.php?rid=9778909]http://UA.***/forum/tracker.php?rid=9778909[/url]
Избранные:
1) Я - гражданин Республики Беларусь. Архитектурные и художественные шедевры Беларуси [2008, RUS]
[url=http://***/forum/viewtopic.php?t=3516744]http://***/forum/viewtopic.php?t=3516744[/url]
2) Государственная политика [Документальный цикл, TVRip, 2010]
[url=http://***/forum/viewtopic.php?t=3321565]http://***/forum/viewtopic.php?t=3321565[/url]
3) Беларусь. Взгляд извне [2005, документальный сериал, TVRip]
[url=http://***/forum/viewtopic.php?t=3543820]http://***/forum/viewtopic.php?t=3543820[/url]
4) Трилогия: Белая Русь, Чарующая Беларусь, Путешествие из Беларуси в Россию [2010-2011 г., Документальный, DVD5]
[url=http://***/forum/viewtopic.php?t=3442053]http://***/forum/viewtopic.php?t=3442053[/url]
5) Правда о западной «демократии» и белорусском «тоталитаризме» [Беларусь 2011, Документальное расследование]
[url=http://***/forum/viewtopic.php?t=3523672]http://***/forum/viewtopic.php?t=3523672[/url]
6) Задорнов в Беларуси. Беларусь - это значительно улучшенный Советский Союз [2010-2011 г., Интервью, TVRip]
[url=http://***/forum/viewtopic.php?t=3512134]http://***/forum/viewtopic.php?t=3512134[/url]
7) [Журнал] Экономика Беларуси (16 номеров) [2007-2010, PDF, RUS]
[url=http://***/forum/viewtopic.php?t=3309120]http://***/forum/viewtopic.php?t=3309120[/url]
8) Армия - Журнал Вооруженных сил республики Беларусь. (81 номер) [1996-2010, PDF, RUS]
[url=http://***/forum/viewtopic.php?t=3277264]http://***/forum/viewtopic.php?t=3277264[/url]
9) Страна Моя, Беларусь! Заставка телеканал СТВ Минск. Белоруссия, Мир, Несвиж и др. zweizwei [2010, рекламный ролик, заставка, HD-Video]
[url=http://***/forum/viewtopic.php?t=3480687]http://***/forum/viewtopic.php?t=3480687[/url]
10) Радзивиллы Несвижские владения Костел Божьего тела [2011 г., хроникально-документальный, TVRip]
[url=http://***/forum/viewtopic.php?t=3410980]http://***/forum/viewtopic.php?t=3410980[/url]
11) Полёты на воздушном шаре. Новогрудок. Беларусь. zweizwei / Belarus Novogrudok [2010, HD-Video]
[url=http://***/forum/viewtopic.php?t=3380821]http://***/forum/viewtopic.php?t=3380821[/url]
12) Полёты на воздушном шаре / Беларусь, Белоруссия, Гродно, Святск. zweizwei [2009, HD-Video]
[url=http://***/forum/viewtopic.php?t=3380756]http://***/forum/viewtopic.php?t=3380756[/url]
13) Вид Гродно с высоты полета (Беларусь)/Выгляд Гродна з вышыні палёту паветранага шара [222]
[url=http://***/forum/viewtopic.php?t=3369388]http://***/forum/viewtopic.php?t=3369388[/url]
14) Анархия Прямое действие. Беларусь [2011, документальный фильм, TVRip]
[url=http://***/forum/viewtopic.php?t=3485756]http://***/forum/viewtopic.php?t=3485756[/url]
15) Психология девиации (АТН, Беларусь ТВ) [2010, Информационно-аналитические и общественно-политическиепередачи, TVRip]
[url=http://***/forum/viewtopic.php?t=3542424]http://***/forum/viewtopic.php?t=3542424[/url]
16) Боль моя - Чернобыль (Беларусь, Коллектив Беларусь ТВ) [2011, Документлный, TVRip]
[url=http://***/forum/viewtopic.php?t=3546253]http://***/forum/viewtopic.php?t=3546253[/url]
17) Попов хутор и его обитатели Русс ТВ [2011, Документальный, DVD5]
[url=http://***/forum/viewtopic.php?t=3514286]http://***/forum/viewtopic.php?t=3514286[/url]
и сотни других...
Качество видео: DVB-AVC
Формат видео: MKV
Видео: AVC (H264), 720x576 (4:3), 25 fps, 2 196 Kbps
Аудио: MP2, 224kbps, 2 channels, 48 kHz
MediaInfo
GeneralUnique ID : 26538114083765658906496227652712740300 (0x13F70E0B2F0368952A37959E3BD335CC)Complete name : D:\Новая земля 2\Художественные фильмы\Купальская ноч (1983)\Купальская ноч_1983.mkvFormat : MatroskaFormat version : Version 2File size : 1.22 GiBDuration : 1h 9mnOverall bit rate : 2 501 KbpsWriting application : Lavf52.64.2Writing library : Lavf52.64.2
VideoID : 1Format : AVCFormat/Info : Advanced Video CodecFormat profile : Main@L3.0Format settings, CABAC : YesFormat settings, ReFrames : 4 framesFormat settings, GOP : M=5, N=24Codec ID : V_MPEG4/ISO/AVCDuration : 1h 9mnBit rate : 2 196 KbpsWidth : 720 pixelsHeight : 576 pixelsDisplay aspect ratio : 4:3Original display aspect ratio : 4:3Frame rate mode : ConstantFrame rate : 25.000 fpsStandard : PALColor space : YUVChroma subsampling : 4:2:0Bit depth : 8 bitsScan type : MBAFFScan order : Top Field FirstBits/(Pixel*Frame) : 0.212Stream size : 1.07 GiB (88%)Default : YesForced : NoColor primaries : BT.601 PALTransfer characteristics : BT.470 System B, BT.470 System GMatrix coefficients : BT.601Color range : Limited
AudioID : 2Format : MPEG AudioFormat version : Version 1Format profile : Layer 2Codec ID : A_MPEG/L2Codec ID/Hint : MP2Duration : 1h 9mnBit rate mode : ConstantBit rate : 256 KbpsChannel(s) : 2 channelsSampling rate : 48.0 KHzCompression mode : LossyStream size : 127 MiB (10%)Language : EnglishDefault : YesForced : No
Скриншоты
Скачать

Скачать торрент!

Как скачивать? · Что такое торрент? · Рейтинг и ограничения

Сайт не распространяет и не хранит электронные версии произведений, а лишь предоставляет доступ к создаваемому пользователями каталогу ссылок на торрент-файлы, которые содержат только списки хеш-сумм

[Профиль] [ЛС]
Показать сообщения:    
Ответить на тему

Текущее время: Сегодня 08:05

Часовой пояс: GMT + 4



Вы не можете начинать темы
Вы не можете отвечать на сообщения
Вы не можете редактировать свои сообщения
Вы не можете удалять свои сообщения
Вы не можете голосовать в опросах
Вы не можете прикреплять файлы к сообщениям
Вы не можете скачивать файлы