Трамбо / Trumbo (Джей Роуч / Jay Roach) [2015, США, драма, биография, DVDScr] DVO (Паровоз Продакшн)

Ответить на тему
 
Автор Сообщение

user ®

Стаж: 7 лет 7 месяцев

Сообщений: 20008

Пост Пост: #1 от 03-Янв-2016 02:48

[Цитировать]

Трамбо / Trumbo Страна: США
Жанр: драма, биография
Год выпуска: 2015
Продолжительность: 02:04:09
Перевод: Любительский (двухголосый закадровый) Паровоз Продакшн
Cубтитры: нет
Режиссер: Джей Роуч / Jay Roach
В ролях: Брайан Крэнстон, Дайан Лэйн, Хелен Миррен, Майкл Стулбарг, Дэвид Мальдонадо, Джон Гец, Лаура Флэннери, Дэвид Джеймс Эллиотт, Тоби Николс, Джозеф С. Мартино, Мэдисон Вульф, Джейсон Бэйл, Джеймс ДюМонт, Алан Тьюдик, Луис С.К., Дэн Баккедаль, Ричард Портноу, Роджер Барт, Джонни Снид, Рио Хекфорд
Описание: Далтон Трамбо, один из самых успешных голливудских сценаристов, автор «Римских каникул» и «Спартака», не подозревал, что черный список «Hollywood 10» реально существует, пока сам не попал туда и не был навсегда выкинут из жизни фабрики грез…

Качество видео: DVDScr
Формат видео: AVI
Видео кодек: XviD
Аудио кодек: AC3
Видео: 720x384 (1.88:1), 29.970 fps, XviD build 50 ~1699 kbps avg, 0.20 bit/pixel
Аудио#1: 48 kHz, AC3 Dolby Digital, 2/0 2 ch, ~192 kbps

MediaInfo
Complete name : Трамбо 2015.avi
Format : AVI
Format/Info : Audio Video Interleave
File size : 1.65 GiB
Duration : 2h 4mn
Overall bit rate : 1 904 Kbps
Writing application : VirtualDubMod 1.5.10.3 | www.virtualdub-fr.org || (build 2550/release)
Writing library : VirtualDubMod build 2550/release
Video
ID : 0
Format : MPEG-4 Visual
Format profile : Advanced Simple@L5
Format settings, BVOP : 2
Format settings, QPel : Yes
Format settings, GMC : No warppoints
Format settings, Matrix : Default (H.263)
Codec ID : XVID
Codec ID/Hint : XviD
Duration : 2h 4mn
Bit rate : 1 700 Kbps
Width : 720 pixels
Height : 384 pixels
Display aspect ratio : 1.85:1
Frame rate : 29.970 fps
Color space : YUV
Chroma subsampling : 4:2:0
Bit depth : 8 bits
Scan type : Progressive
Compression mode : Lossy
Bits/(Pixel*Frame) : 0.205
Stream size : 1.47 GiB (89%)
Writing library : XviD 1.2.1 (UTC 2008-12-04)
Audio
ID : 1
Format : AC-3
Format/Info : Audio Coding 3
Mode extension : CM (complete main)
Format settings, Endianness : Big
Codec ID : 2000
Duration : 2h 4mn
Bit rate mode : Constant
Bit rate : 192 Kbps
Channel(s) : 2 channels
Channel positions : Front: L R
Sampling rate : 48.0 KHz
Compression mode : Lossy
Stream size : 170 MiB (10%)
Alignment : Split accross interleaves
Interleave, duration : 33 ms (1.00 video frame)
Interleave, preload duratio : 500 ms
Скриншоты Oтсутствует какая-либо реклама
Скачать

Скачать торрент!

Как скачивать? · Что такое торрент? · Рейтинг и ограничения

Сайт не распространяет и не хранит электронные версии произведений, а лишь предоставляет доступ к создаваемому пользователями каталогу ссылок на торрент-файлы, которые содержат только списки хеш-сумм

[Профиль] [ЛС]
Показать сообщения:    
Ответить на тему

Текущее время: Сегодня 06:01

Часовой пояс: GMT + 4



Вы не можете начинать темы
Вы не можете отвечать на сообщения
Вы не можете редактировать свои сообщения
Вы не можете удалять свои сообщения
Вы не можете голосовать в опросах
Вы не можете прикреплять файлы к сообщениям
Вы не можете скачивать файлы