SOS, Дед Мороз или Все сбудется! (Арман Геворгян) [2015, комедия, семейный, WEB-DLRip] [iTunes]

Ответить на тему
 
Автор Сообщение

user ®

Стаж: 8 лет 8 месяцев

Сообщений: 20007

Пост Пост: #1 от 02-Янв-2016 11:21

[Цитировать]

SOS, Дед Мороз или Все сбудется!
Жанр: комедия, семейный
Год выпуска: 2015
Продолжительность: 01:26:59
Режиссёр: Арман Геворгян
В ролях: Михаил Беспалов, Софья Спектор, Анатолий Белый, Алёна Бабенко, Дмитрий Назаров, Андрей Бедняков, Оксана Акиньшина, Алексей Бардуков, Полина Максимова, Сергей Рост
Описание: Света отчаянно хочет, чтобы ее родители помирились. Она верит, что эту мечту обязательно исполнит Дед Мороз, только стоит найти его и попросить об этом. Как же кстати он встречается Свете как раз накануне Нового года. Только вот девочка приняла за Деда Мороза переодетого мошенника и обаятельного афериста Мышкина. Теперь эта парочка на пути к исполнению своих желаний вовлечет в круговорот новогодних приключений еще десяток ни в чем неповинных людей, у которых теперь тоже появится надежда встретить эту новогоднюю ночь счастливыми.

Сэмпл: https://www.sendspace.com/file/6caium
Качество видео: WEB-DLRip
Формат видео: AVI
Видео: 720x304 (2.37:1), 25 fps, XviD build 73 ~1060 kbps avg, 0.19 bit/pixel
Аудио: 48 kHz, MPEG Layer 3, 2 ch, ~128.00 kbps avg
MediaInfo
Общее
Полное имя : S:\Фильмы\SOS, Дед Мороз или Все сбудется! 2015. WEB-DLRip (AleksSin).avi
Формат : AVI
Формат/Информация : Audio Video Interleave
Размер файла : 745 Мбайт
Продолжительность : 1 ч. 26 м.
Общий поток : 1198 Кбит/сек
Программа кодирования : VirtualDubMod 1.5.10.3 | www.virtualdub-fr.org || (build 2550/release)
Библиотека кодирования : VirtualDubMod build 2550/release
Видео
Идентификатор : 0
Формат : MPEG-4 Visual
Профиль формата : Advanced Simple@L5
Параметр BVOP формата : 1
Параметр QPel формата : Нет
Параметр GMC формата : Без точки перехода
Параметр матрицы формата : Выборочная
Идентификатор кодека : XVID
Идентификатор кодека/Подсказка : XviD
Продолжительность : 1 ч. 26 м.
Битрейт : 1060 Кбит/сек
Ширина : 720 пикселей
Высота : 304 пикселя
Соотношение сторон : 2,35:1
Частота кадров : 25,000 кадров/сек
Цветовое пространство : YUV
Субдискретизация насыщенности : 4:2:0
Битовая глубина : 8 бит
Тип развёртки : Прогрессивная
Метод сжатия : С потерями
Бит/(Пиксели*Кадры) : 0.194
Размер потока : 660 Мбайт (89%)
Библиотека кодирования : XviD 73
Аудио
Идентификатор : 1
Формат : MPEG Audio
Версия формата : Version 1
Профиль формата : Layer 3
Идентификатор кодека : 55
Идентификатор кодека/Подсказка : MP3
Продолжительность : 1 ч. 26 м.
Вид битрейта : Постоянный
Битрейт : 128 Кбит/сек
Каналы : 2 канала
Частота : 48,0 КГц
Метод сжатия : С потерями
Размер потока : 79,6 Мбайт (11%)
Выравнивание : Соединение по промежуткам
Продолжительность промежутка : 40 мс. (1,00 видеокадр)
Время предзагрузки промежутка : 504 мс.
Библиотека кодирования : LAME3.99r
Настройки программы : -m s -V 4 -q 2 -lowpass 17 -b 128
Скриншот c названием фильма Скриншоты
Скачать

Скачать торрент!

Как скачивать? · Что такое торрент? · Рейтинг и ограничения

Сайт не распространяет и не хранит электронные версии произведений, а лишь предоставляет доступ к создаваемому пользователями каталогу ссылок на торрент-файлы, которые содержат только списки хеш-сумм

[Профиль] [ЛС]
Показать сообщения:    
Ответить на тему

Текущее время: Сегодня 22:39

Часовой пояс: GMT + 4



Вы не можете начинать темы
Вы не можете отвечать на сообщения
Вы не можете редактировать свои сообщения
Вы не можете удалять свои сообщения
Вы не можете голосовать в опросах
Вы не можете прикреплять файлы к сообщениям
Вы не можете скачивать файлы