Плохие соседи по комнате / Bad Roomies (Джейсон Шнель / Jason Schnell) [2015, США, комедия, WEBDL-AVC] DVO + Original Eng

Ответить на тему
 
Автор Сообщение

user ®

Стаж: 7 лет 7 месяцев

Сообщений: 20008

Пост Пост: #1 от 01-Янв-2016 16:48

[Цитировать]

Плохие соседи по комнате / Bad Roomies
Страна: США
Жанр: комедия
Год выпуска: 2015
Продолжительность: 01:33:15-Перевод: Любительский (двухголосный закадровый)
Cубтитры: нет
Оригинальная аудиодорожка: английский-Режиссер: Джейсон Шнель / Jason Schnell-В ролях: Патрик Ренна, Томми Савас, Энни Монро, Джеки Тон, Пейдж Кеннеди, Кайл Ховард, Джорди Мастерсон, Кристофер Мастерсон, Линси Бартилсон, Эрик Памфри-Описание: Черная комедия о двух парнях, живущих вместе, которые, потеряв своего соседа, дают объявление, чтобы найти нового. После серии собеседований с потенциальными соседями по комнате они останавливаются на, казалось бы, безобидной и красивой девушке. Кипящее соперничество, катастрофическая игра соседей в борьбе за девушку, которая изменит всю их жизнь навсегда.
Доп. информация: сохранена навигация по главам
Сэмпл: http://sendfile.su/1188844
Качество видео: WEBDL-AVC, 720р
Формат видео: MKV
Видео: MPEG4/AVC, 1136x480, 2,35:1, 23,976 (24000/1001) кадра/сек, 2500 Кбит/сек
Аудио 1: AC-3, 48 КГц, 192 Кбит/сек, 2 канала Front: L R, русский
Аудио 2: AC-3, 48 КГц, 384 Кбит/сек, 6 каналов Front: L C R, Side: L R, LFE, English


MediaInfo
Формат : Matroska
Версия формата : Version 4 / Version 2
Размер файла : 2,00 Гбайт
Продолжительность : 1 ч. 33 м.
Общий поток : 3077 Кбит/сек
Дата кодирования : UTC 2016-01-01 07:50:05
Программа кодирования : mkvmerge v7.6.0 ('Garden of Dreams') 32bit built on Feb 11 2015 00:18:47
Библиотека кодирования : libebml v1.3.1 + libmatroska v1.4.2
Видео
Идентификатор : 1
Формат : AVC
Формат/Информация : Advanced Video Codec
Профиль формата : High@L4.1
Параметр CABAC формата : Да
Параметр ReFrames формата : 9 кадров
Идентификатор кодека : V_MPEG4/ISO/AVC
Продолжительность : 1 ч. 33 м.
Битрейт : 2500 Кбит/сек
Ширина : 1136 пикселей
Высота : 480 пикселей
Соотношение сторон : 2,35:1
Режим частоты кадров : Постоянный
Частота кадров : 23,976 (24000/1001) кадра/сек
Цветовое пространство : YUV
Субдискретизация насыщенности : 4:2:0
Битовая глубина : 8 бит
Тип развёртки : Прогрессивная
Бит/(Пиксели*Кадры) : 0.191
Размер потока : 1,63 Гбайт (81%)
Библиотека кодирования : x264 core 144 r2525 40bb568
Настройки программы : cabac=1 / ref=9 / deblock=1:-1:-1 / analyse=0x3:0x133 / me=umh / subme=9 / psy=1 / psy_rd=1.00:0.10 / mixed_ref=1 / me_range=40 / chroma_me=1 / trellis=2 / 8x8dct=1 / cqm=0 / deadzone=21,11 / fast_pskip=0 / chroma_qp_offset=-3 / threads=6 / lookahead_threads=1 / sliced_threads=0 / nr=0 / decimate=1 / interlaced=0 / bluray_compat=0 / constrained_intra=0 / bframes=9 / b_pyramid=2 / b_adapt=2 / b_bias=0 / direct=3 / weightb=1 / open_gop=0 / weightp=2 / keyint=250 / keyint_min=23 / scenecut=40 / intra_refresh=0 / rc_lookahead=50 / rc=2pass / mbtree=1 / bitrate=2500 / ratetol=1.0 / qcomp=0.60 / qpmin=0 / qpmax=69 / qpstep=4 / cplxblur=20.0 / qblur=0.5 / ip_ratio=1.40 / aq=1:1.00
Default : Да
Forced : Нет
Аудио #1
Идентификатор : 2
Формат : AC-3
Формат/Информация : Audio Coding 3
Расширение режима : CM (complete main)
Параметр Endianness формата : Big
Идентификатор кодека : A_AC3
Продолжительность : 1 ч. 33 м.
Вид битрейта : Постоянный
Битрейт : 192 Кбит/сек
Каналы : 2 канала
Расположение каналов : Front: L R
Частота : 48,0 КГц
Частота кадров : 31,250 кадров/сек (1536 spf)
Метод сжатия : С потерями
Размер потока : 128 Мбайт (6%)
Язык : Russian
Default : Да
Forced : Нет
Аудио #2
Идентификатор : 3
Формат : AC-3
Формат/Информация : Audio Coding 3
Расширение режима : CM (complete main)
Параметр Endianness формата : Big
Идентификатор кодека : A_AC3
Продолжительность : 1 ч. 33 м.
Вид битрейта : Постоянный
Битрейт : 384 Кбит/сек
Каналы : 6 каналов
Расположение каналов : Front: L C R, Side: L R, LFE
Частота : 48,0 КГц
Частота кадров : 31,250 кадров/сек (1536 spf)
Метод сжатия : С потерями
Размер потока : 256 Мбайт (12%)
Язык : English
Default : Нет
Forced : Нет
Меню
00:00:00.000 : en:And it Ends
00:11:48.000 : en:House Rules
00:20:02.000 : en:Living Dangerously
00:28:18.000 : en:Party Party
00:35:14.000 : en:Morning After
00:44:45.000 : en:Being an Adult
00:57:20.000 : en:Truth Hurts
01:03:55.000 : en:Keeping it Cool
01:10:17.000 : en:Decisions, Decisions
01:16:39.000 : en:Best Laid Plans...
01:22:09.000 : en:Not Yet Out of the Woods
01:29:28.742 : en:End Credits
Скриншот c названием фильма Скриншоты
Скачать

Скачать торрент!

Как скачивать? · Что такое торрент? · Рейтинг и ограничения

Сайт не распространяет и не хранит электронные версии произведений, а лишь предоставляет доступ к создаваемому пользователями каталогу ссылок на торрент-файлы, которые содержат только списки хеш-сумм

[Профиль] [ЛС]
Показать сообщения:    
Ответить на тему

Текущее время: Сегодня 20:07

Часовой пояс: GMT + 4



Вы не можете начинать темы
Вы не можете отвечать на сообщения
Вы не можете редактировать свои сообщения
Вы не можете удалять свои сообщения
Вы не можете голосовать в опросах
Вы не можете прикреплять файлы к сообщениям
Вы не можете скачивать файлы