Три богатыря (Александр Игудин) [2013, новогодняя сказка, мюзикл, комедия, SATRip]

Ответить на тему
 
Автор Сообщение

user ®

Стаж: 7 лет 7 месяцев

Сообщений: 20008

Пост Пост: #1 от 01-Янв-2016 01:21

[Цитировать]

Три богатыря
Жанр: Новогодняя сказка, мюзикл, комедия
Год выпуска: 2013
Продолжительность: 01:31:28
Режиссёр: Александр Игудин
В ролях: Анна Семенович, Ефим Шифрин, Алексей Воробьев, Анастасия Стоцкая, Андрей Данилко, Юрий Гальцев, Юрий Стоянов, Михаил Боярский, Юрий Аскаров, Кристина Орбакайте, Филипп Киркоров
Описание: По традиции в канун Нового года на телеканале "Россия" - старая сказка на новый лад! Авторы новой музыкальной комедии сознательно изменили сюжетную линию всем знакомой сказки, добавили новые непредсказуемые повороты и ввели неожиданных героев. В сказочных персонажей перевоплотились многие поп-звезды...
Доп. информация:
Сэмпл: http://multi-up.com/1066156
Исходник: [url=http://***/forum/viewtopic.php?t=4640274]http://***/forum/viewtopic.php?t=4640274[/url]
Формат видео: AVI
Качество видео: SATRip (DVB)
Видео: XviD, 656х368, 25fps, 1000kbps
Аудио: MPEG Layer 3, 2ch, 48000Hz, 128kbps
MediaInfo
General
Complete name : Tri.Bogatyra.2013.O.SATRip.700.CurHaJI.avi
Format : AVI
Format/Info : Audio Video Interleave
File size : 744 MiB
Duration : 1h 31mn
Overall bit rate : 1 138 Kbps
Movie name : Tri.Bogatyra.2013.O.SATRip.700.CurHaJI
Writing application : Lavf53.13.0
Writing library : VirtualDub build 35491/release
Video
ID : 0
Format : MPEG-4 Visual
Format profile : Advanced Simple@L5
Format settings, BVOP : 2
Format settings, QPel : No
Format settings, GMC : No warppoints
Format settings, Matrix : Custom
Codec ID : XVID
Codec ID/Hint : XviD
Duration : 1h 31mn
Bit rate : 1 000 Kbps
Width : 656 pixels
Height : 368 pixels
Display aspect ratio : 16:9
Frame rate : 25.000 fps
Color space : YUV
Chroma subsampling : 4:2:0
Bit depth : 8 bits
Scan type : Progressive
Compression mode : Lossy
Bits/(Pixel*Frame) : 0.166
Stream size : 654 MiB (88%)
Writing library : XviD 64
Audio
ID : 1
Format : MPEG Audio
Format version : Version 1
Format profile : Layer 3
Codec ID : 55
Codec ID/Hint : MP3
Duration : 1h 31mn
Bit rate mode : Constant
Bit rate : 128 Kbps
Channel(s) : 2 channels
Sampling rate : 48.0 KHz
Compression mode : Lossy
Stream size : 83.7 MiB (11%)
Alignment : Split accross interleaves
Interleave, duration : 40 ms (1.00 video frame)
Interleave, preload duration : 500 ms
Writing library : L3.99r
Encoding settings : -m s -V 4 -q 2 -lowpass 17 -b 128
Скриншоты
Скриншоты
Скачать

Скачать торрент!

Как скачивать? · Что такое торрент? · Рейтинг и ограничения

Сайт не распространяет и не хранит электронные версии произведений, а лишь предоставляет доступ к создаваемому пользователями каталогу ссылок на торрент-файлы, которые содержат только списки хеш-сумм

[Профиль] [ЛС]
Показать сообщения:    
Ответить на тему

Текущее время: Сегодня 02:15

Часовой пояс: GMT + 4



Вы не можете начинать темы
Вы не можете отвечать на сообщения
Вы не можете редактировать свои сообщения
Вы не можете удалять свои сообщения
Вы не можете голосовать в опросах
Вы не можете прикреплять файлы к сообщениям
Вы не можете скачивать файлы