К черту это завтра! / Ain\'t No Tomorrows / Oretachi ni Asu wa Naissu (Юки Танада / Yuki Tanada) [2008, Япония, драма, DVDRip] VO (Синхито) + Sub Rus

Ответить на тему
 
Автор Сообщение

user ®

Стаж: 13 лет

Сообщений: 15071

Пост Пост: #1 от 28-Дек-2015 16:51

[Цитировать]

К черту это завтра! / Ain't No Tomorrows / Oretachi ni Asu wa Naissu

Страна: Япония
Жанр: драма
Год выпуска: 2008
Продолжительность: 01:18:52
Перевод: Одноголосый закадровый - Синхито
Cубтитры: русские (Синхито)
Оригинальная аудиодорожка: японский

Режиссер: Юки Танада / Yuki Tanada
В ролях: Сакура Андо, Токио Эмото, Юя Эндо, Ини Кусано, Томорово Тагути, Данкан, Кохей Кумаи, Шиико Утагава, Аямэ Мисаки, Сола Аои
Описание: Фильм снят на основе трех глав из манги Акиры Сасо "Oretachi ni Asu wa Naissu" и повествует нам о жизни обычных японских подростков-школьников. Хирума - балабол. Он давно уже озабочен лишь темой секса и потому ищет возможности свои желания удовлетворить. Минэ - прилежный ученик и симпатичный парень, девушки его интересуют меньше, он более замкнутый, но в компании своих друзей чувствует себя вполне комфортно. Андо - толстый парень, получивший прозвище "Дыньки" из-за своей "черезчур заметной" груди. Он скромный и любит детей, но совершенно беззащитный и часто терпит насмешки от своих же приятелей. Все они учатся в выпускном классе и стоят на пороге новой жизни. Каждому из них предстоит узнать, что такое любовь. Каждому по-своему.
Удивительный фильм от режиссера "Moon and Cherry" Юки Танады с героями, в которых невозможно не влюбиться заставит грустить и улыбаться, а так же пережить (снова) этот удивительный возраст семнадцати лет…

Качество видео: [url=http://***/forum/viewtopic.php?t=2776334]DVDRip[/url]
Формат видео: AVI
Видео: 704x384 (1.83:1), 23.976 fps, XviD build 73 ~2182 kbps avg, 0.34 bit/pixel
Аудио: 48 kHz, AC3 Dolby Digital, 2/0 (L,R) ch, ~224 kbps - одноголосый
Аудио: 48 kHz, AC3 Dolby Digital, 2/0 (L,R) ch, ~224 kbps - оригинал


MediaInfo
Общее
Полное имя : H:\Oretachi.ni.Asu.wa.Naissu.2008.dvdrip_[1.46]_[teko]\Oretachi.ni.Asu.wa.Naissu.2008.dvdrip_[1.46].avi
Формат : AVI
Формат/Информация : Audio Video Interleave
Размер файла : 1,46 Гбайт
Продолжительность : 1 ч. 18 м.
Общий поток : 2646 Кбит/сек
Программа кодирования : VirtualDubMod 1.5.10.3 | www.virtualdub-fr.org || (build 2550/release)
Библиотека кодирования : VirtualDubMod build 2550/release
Видео
Идентификатор : 0
Формат : MPEG-4 Visual
Профиль формата : Advanced Simple@L5
Параметр BVOP формата : 1
Параметр QPel формата : Нет
Параметр GMC формата : Без точки перехода
Параметр матрицы формата : Выборочная
Идентификатор кодека : XVID
Идентификатор кодека/Подсказка : XviD
Продолжительность : 1 ч. 18 м.
Битрейт : 2184 Кбит/сек
Ширина : 704 пикселя
Высота : 384 пикселя
Соотношение сторон : 1,85:1
Частота кадров : 23,976 кадра/сек
Цветовое пространство : YUV
Субдискретизация насыщенности : 4:2:0
Битовая глубина : 8 бит
Тип развёртки : Прогрессивная
Метод сжатия : С потерями
Бит/(Пиксели*Кадры) : 0.337
Размер потока : 1,20 Гбайт (83%)
Библиотека кодирования : XviD 73
Аудио #1
Идентификатор : 1
Формат : AC-3
Формат/Информация : Audio Coding 3
Расширение режима : CM (complete main)
Параметр Endianness формата : Big
Идентификатор кодека : 2000
Продолжительность : 1 ч. 18 м.
Вид битрейта : Постоянный
Битрейт : 224 Кбит/сек
Каналы : 2 канала
Расположение каналов : Front: L R
Частота : 48,0 КГц
Битовая глубина : 16 бит
Метод сжатия : С потерями
Размер потока : 126 Мбайт (8%)
Выравнивание : Разделение по промежуткам
Продолжительность промежутка : 42 мс. (1,00 видеокадр)
Время предзагрузки промежутка : 500 мс.
Аудио #2
Идентификатор : 2
Формат : AC-3
Формат/Информация : Audio Coding 3
Расширение режима : CM (complete main)
Параметр Endianness формата : Big
Идентификатор кодека : 2000
Продолжительность : 1 ч. 18 м.
Вид битрейта : Постоянный
Битрейт : 224 Кбит/сек
Каналы : 2 канала
Расположение каналов : Front: L R
Частота : 48,0 КГц
Битовая глубина : 16 бит
Метод сжатия : С потерями
Размер потока : 126 Мбайт (8%)
Выравнивание : Разделение по промежуткам
Продолжительность промежутка : 42 мс. (1,00 видеокадр)
Время предзагрузки промежутка : 500 мс.
Скриншоты Релиз группы:
[url=http://***/forum/viewtopic.php?t=1677970] [/url]
--
Скачать

Скачать торрент! К черту это завтра! / Ain\'t No Tomorrows / Oretachi ni Asu wa Naissu (Юки Танада / Yuki Tanada) [2008, Япония, драма, DVDRip] VO (Синхито) + Sub Rus

Как скачивать? · Что такое торрент? · Рейтинг и ограничения

Сайт не распространяет и не хранит электронные версии произведений, а лишь предоставляет доступ к создаваемому пользователями каталогу ссылок на торрент-файлы, которые содержат только списки хеш-сумм

[Профиль] [ЛС]
Показать сообщения:    
Ответить на тему

Текущее время: Сегодня 20:59

Часовой пояс: GMT + 4



Вы не можете начинать темы
Вы не можете отвечать на сообщения
Вы не можете редактировать свои сообщения
Вы не можете удалять свои сообщения
Вы не можете голосовать в опросах
Вы не можете прикреплять файлы к сообщениям
Вы не можете скачивать файлы