Рок ку-ка-ре-ку / Rock-A-Doodle (Дон Блат /Don Bluth) [1991, Ирландия, США, Великобритания, Мультфильм,детский, DVDRip] VO

Ответить на тему
 
Автор Сообщение

user ®

Стаж: 13 лет

Сообщений: 15041

Пост Пост: #1 от 28-Дек-2015 13:15

[Цитировать]

Рок ку-ка-ре-ку / Rock-A-Doodle
Страна: Ирландия, США, Великобритания
Жанр: Мультфильм,детский
Продолжительность: 01:11:03
Год выпуска: 1991
Перевод: Студийный (одноголосый закадровый)
Русские субтитры: нет
Режиссёр: Дон Блат /Don Bluth
Роли озвучивали: Соррелл Бук /Sorrell Booke , Кристофер Пламмер /Christopher Plummer
Описание: Каждое утро петух Шантеклер будил своей песней солнце. Это очень не нравилось злому филину по прозвищу Великий Герцог, ненавидевшему свет и любившему ночную тьму. Одним прекрасным утром, когда Шантеклер дрался с другим петухом, солнце взошло без его песни. И тогда опозоренный певец покинул родную ферму, чтобы найти счастье в большом городе. И тут же солнце перестало всходить, а над землей нависли огромные черные тучи. Великий Герцог уже празднует победу, но обитатели фермы во главе с пушистым белым котенком Эдмондом отправляются в рискованное путешествие в надежде найти Шантеклера и вернуть украденное солнце ...
Доп. информация: Известный мультик 90-ых с озвучкой от Первого Канала.
В интернете найти нереально..

Качество: DVDRip
Формат: MP4
Видео: H264 - MPEG4-AVC, 720x544, 15, 3000 кбит/сек
Аудио: AAC, 44100 кгц, стерео, 160 кбит/сек
Субтитры: отсутствуют
Подробные технические данные
GeneralComplete name Рок-Кукареку.mp4Format : MPEG-4Format profile : Base Media / Version 2Codec ID : mp42 (mp42)File size : 1.57 GiBDuration : 1h 11mnOverall bit rate : 3 160 KbpsCodirector : codirectorProduction studio : studioContentType : Unknown TypeEncoded date : UTC 2015-10-27 19:41:47Tagged date : UTC 2015-10-27 19:41:47
VideoID : 1Format : AVCFormat/Info : Advanced Video CodecFormat profile : Baseline@L3Format settings, CABAC : NoFormat settings, ReFrames : 1 frameFormat settings, GOP : M=1, N=25Muxing mode : Container profile=Baseline@4.1Codec ID : avc1Codec ID/Info : Advanced Video CodingDuration : 1h 11mnBit rate : 2 996 KbpsWidth : 720 pixelsHeight : 544 pixelsDisplay aspect ratio : 4:3Frame rate mode : ConstantFrame rate : 15.000 fpsColor space : YUVChroma subsampling : 4:2:0Bit depth : 8 bitsScan type : ProgressiveBits/(Pixel*Frame) : 0.510Stream size : 1.49 GiB (95%)Language : English
AudioID : 2Format : AACFormat/Info : Advanced Audio CodecFormat profile : LCCodec ID : 40Duration : 1h 11mnBit rate mode : ConstantBit rate : 159 KbpsChannel(s) : 2 channelsChannel positions : Front: L RSampling rate : 44.1 KHzFrame rate : 43.066 fps (1024 spf)Compression mode : LossyStream size : 81.1 MiB (5%)Title : StereoLanguage : EnglishDefault : YesAlternate group : 1
Скриншоты


Скачать

Скачать торрент! Рок ку-ка-ре-ку / Rock-A-Doodle (Дон Блат /Don Bluth) [1991, Ирландия, США, Великобритания, Мультфильм,детский, DVDRip] VO

Как скачивать? · Что такое торрент? · Рейтинг и ограничения

Сайт не распространяет и не хранит электронные версии произведений, а лишь предоставляет доступ к создаваемому пользователями каталогу ссылок на торрент-файлы, которые содержат только списки хеш-сумм

[Профиль] [ЛС]
Показать сообщения:    
Ответить на тему

Текущее время: Сегодня 20:24

Часовой пояс: GMT + 4



Вы не можете начинать темы
Вы не можете отвечать на сообщения
Вы не можете редактировать свои сообщения
Вы не можете удалять свои сообщения
Вы не можете голосовать в опросах
Вы не можете прикреплять файлы к сообщениям
Вы не можете скачивать файлы