Девушка из Дании / The Danish Girl (Том Хупер / Tom Hooper) [2015, Великобритания, Германия, США, драма, мелодрама, биография, DVDScreener] DVO (DeadSno & Den904)

Ответить на тему
 
Автор Сообщение

user ®

Стаж: 7 лет 7 месяцев

Сообщений: 20008

Пост Пост: #1 от 28-Дек-2015 13:15

[Цитировать]

Девушка из Дании / The Danish Girl
Страна: Великобритания, Германия, США
Жанр: драма, мелодрама, биография
Год выпуска: 2015
Продолжительность: 01:56:49-Перевод: Любительский (двухголосный закадровый) DeadSno & Den904
Cубтитры: нет
Оригинальная аудиодорожка: нет-Режиссер: Том Хупер / Tom Hooper-В ролях: Эдди Редмэйн, Алисия Викандер, Эмбер Хёрд Депп, Эмиральд Феннел, Маттиас Шонартс, Бен Уишоу, Себастьян Кох, Грэхэм Рут, Косима Шоу, Виктория Эмсли, Туссе Сильберг, Адриан Шиллер, Генри Петтигрю, Клаус Буе, Питер Крэг, Анджела Каррен-Описание: Действие происходит в 1920-х годах в Копенгагене. Иллюстратор и художник Герда Вегенер просит своего мужа Эйнара Вегенера попозировать в качестве женской модели. Портреты приобретают популярность и Герда продолжает писать картины со своим мужем в качестве женщины. Эйнару нравится собственная женская внешность и он начинает жить под именем Лили Эльбе. Впоследствии Эльбе становится первым человеком, прошедшим хирургическую коррекцию пола.-Сэмпл: http://sendfile.su/1187391
Качество видео: DVDScreener
Формат видео: AVI
Видео: 720x400 (1.80:1), 29.970 fps, XviD build 50 ~1542 kbps avg, 0.18 bit/pixel
Аудио: 48 kHz, AC3 Dolby Digital, 2/0 (L,R) ch, ~192 kbps


MediaInfo
Формат : AVI
Формат/Информация : Audio Video Interleave
Размер файла : 1,42 Гбайт
Продолжительность : 1 ч. 56 м.
Общий поток : 1746 Кбит/сек
Название фильма : T
Программа кодирования : VirtualDubMod 1.5.10.3 | www.virtualdub-fr.org || (build 2550/release)
Видео
Идентификатор : 0
Формат : MPEG-4 Visual
Профиль формата : Advanced Simple@L5
Параметр BVOP формата : 1
Параметр QPel формата : Нет
Параметр GMC формата : Без точки перехода
Параметр матрицы формата : Default (MPEG)
Идентификатор кодека : XVID
Идентификатор кодека/Подсказка : XviD
Продолжительность : 1 ч. 56 м.
Битрейт : 1542 Кбит/сек
Ширина : 720 пикселей
Высота : 400 пикселей
Соотношение сторон : 16:9
Частота кадров : 29,970 (29970/1000) кадров/сек
Цветовое пространство : YUV
Субдискретизация насыщенности : 4:2:0
Битовая глубина : 8 бит
Тип развёртки : Прогрессивная
Метод сжатия : С потерями
Бит/(Пиксели*Кадры) : 0.179
Размер потока : 1,26 Гбайт (88%)
Библиотека кодирования : XviD 1.2.1 (UTC 2008-12-04)
Аудио
Идентификатор : 1
Формат : AC-3
Формат/Информация : Audio Coding 3
Расширение режима : CM (complete main)
Параметр Endianness формата : Big
Идентификатор кодека : 2000
Продолжительность : 1 ч. 56 м.
Вид битрейта : Постоянный
Битрейт : 192 Кбит/сек
Каналы : 2 канала
Расположение каналов : Front: L R
Частота : 48,0 КГц
Частота кадров : 31,250 кадров/сек (1536 spf)
Метод сжатия : С потерями
Задержка видео : 14 мс.
Размер потока : 160 Мбайт (11%)
Выравнивание : Разделение по промежуткам
Продолжительность промежутка : 33 мс. (1,00 видеокадр)
Время предзагрузки промежутка : 500 мс.
Скриншот c названием фильма Скриншоты
Скачать

Скачать торрент!

Как скачивать? · Что такое торрент? · Рейтинг и ограничения

Сайт не распространяет и не хранит электронные версии произведений, а лишь предоставляет доступ к создаваемому пользователями каталогу ссылок на торрент-файлы, которые содержат только списки хеш-сумм

[Профиль] [ЛС]
Показать сообщения:    
Ответить на тему

Текущее время: Сегодня 03:11

Часовой пояс: GMT + 4



Вы не можете начинать темы
Вы не можете отвечать на сообщения
Вы не можете редактировать свои сообщения
Вы не можете удалять свои сообщения
Вы не можете голосовать в опросах
Вы не можете прикреплять файлы к сообщениям
Вы не можете скачивать файлы