Убийца / Sicario (Дени Вильнёв / Denis Villeneuve) [2015, США, триллер, криминал, BDRip-AVC] Dub (line) + Sub Rus, Eng + Original Eng

Ответить на тему
 
Автор Сообщение

user ®

Стаж: 7 лет 7 месяцев

Сообщений: 20008

Пост Пост: #1 от 28-Дек-2015 13:15

[Цитировать]

Убийца
Sicario
«The border is just another line to cross»
- Страна: США
Жанр: триллер, криминал
Год выпуска: 2015
Продолжительность: 02:01:20
Перевод: Профессиональный (дублированный) (Дубляж - центр с Line)
Cубтитры: Русские (форс на испанскую речь) + (полные, ненорматив - Doctor_Joker), Английский (Full)
Оригинальная аудиодорожка: английский-Режиссер
Дени Вильнёв / Denis Villeneuve
В ролях
Эмили Блант | Emily Blunt (Kate Macer),
Бенисио Дель Торо | Benicio Del Toro (Alejandro)
Джош Бролин | Josh Brolin (Matt Graver)
Виктор Гарбер (Dave Jennings), Джон Бернтал (Ted), Дэниэл Калуя (Reggie Wayne), Джеффри Донован (Steve Forsing), Рауль Трухильо (Rafael), Хулио Седильо (Fausto Alarcon), Хэнк Роджерсон (Phil Coopers), Бернардо Галлегос (Manuel Diaz), Максимилиано Эрнандес (Silvio)-ОписаниеНа американо-мексиканской границе женщина-полицейский сопровождает двух рейнджеров, которые преследуют наркобарона. Она не подозревает, что по ту сторону границы есть тайное место, где не действуют никакие законы и царят насилие и разврат.-Сэмпл

IMDb: 7.90 (69 433)
Качество видео: BDRip-AVC Sicario.2015.1080p.BluRay.REMUX.AVC nnm-club
Формат видео: MKV
Видео: AVC 2149 Kbps 1152 x 480 (2.400) 23.976 fps
Аудио: AC-3 448 Kbps 6 channels, 48.0 KHz DUB
Аудио 2: AC-3 448 Kbps 6 channels, 48.0 KHz Eng
Формат субтитров: softsub (SRT)
MediaInfo | Log
Log
x264 [info]: frame I:1162 Avg QP:11.67 size: 84525
x264 [info]: frame P:33014 Avg QP:13.78 size: 26648
x264 [info]: frame B:140377 Avg QP:15.62 size: 7351
x264 [info]: consecutive B-frames: 1.7% 1.8% 5.2% 14.4% 17.0% 28.0% 9.4% 5.6% 4.0% 2.9% 3.4% 3.1% 3.5%
x264 [info]: mb I I16..4: 17.4% 60.0% 22.6%
x264 [info]: mb P I16..4: 1.2% 7.9% 1.2% P16..4: 26.8% 33.6% 15.7% 3.8% 0.4% skip: 9.2%
x264 [info]: mb B I16..4: 0.4% 0.7% 0.1% B16..8: 30.3% 22.0% 4.6% direct: 4.4% skip:37.6% L0:46.0% L1:43.4% BI:10.7%
x264 [info]: 8x8 transform intra:68.0% inter:44.9%
x264 [info]: direct mvs spatial:99.9% temporal:0.1%
x264 [info]: coded y,uvDC,uvAC intra: 77.6% 83.3% 76.3% inter: 16.9% 15.5% 8.0%
x264 [info]: i16 v,h,dc,p: 67% 10% 9% 14%
x264 [info]: i8 v,h,dc,ddl,ddr,vr,hd,vl,hu: 10% 11% 16% 9% 10% 10% 11% 11% 12%
x264 [info]: i4 v,h,dc,ddl,ddr,vr,hd,vl,hu: 9% 13% 18% 7% 11% 10% 11% 9% 11%
x264 [info]: i8c dc,h,v,p: 47% 27% 14% 12%
x264 [info]: Weighted P-Frames: Y:3.1% UV:1.5%
x264 [info]: ref P L0: 46.2% 6.8% 18.3% 6.8% 6.0% 4.3% 4.0% 2.0% 2.0% 1.6% 1.8% 0.2% 0.0%
x264 [info]: ref B L0: 64.4% 14.4% 7.5% 3.9% 3.0% 2.6% 2.0% 1.3% 0.7% 0.3%
x264 [info]: ref B L1: 89.6% 10.4%
x264 [info]: kb/s:2208.51
x264 [total]: encoded 174553 frames, 9.89 fps, 2208.51 kb/s, duration 4:54:04.58
Format : Matroska
Format version : Version 4 / Version 2
File size : 2.63 GiB
Duration : 2h 1mn
Overall bit rate : 3 107 Kbps
Encoded date : UTC 2015-12-27 22:01:57
Writing application : mkvmerge v6.7.0 ('Back to the Ground') 32bit built on Jan 8 2014 15:03:17
Writing library : libebml v1.3.0 + libmatroska v1.4.1
Video
ID : 1
Format : AVC
Format/Info : Advanced Video Codec
Format profile : High@L4.1
Format settings, CABAC : Yes
Format settings, ReFrames : 11 frames
Codec ID : V_MPEG4/ISO/AVC
Duration : 2h 1mn
Bit rate : 2 149 Kbps
Width : 1 152 pixels
Height : 480 pixels
Display aspect ratio : 2.40:1
Frame rate mode : Constant
Frame rate : 23.976 fps
Color space : YUV
Chroma subsampling : 4:2:0
Bit depth : 8 bits
Scan type : Progressive
Bits/(Pixel*Frame) : 0.162
Stream size : 1.82 GiB (69%)
Title : Sicario (2015) [***]
Writing library : x264 core 148 r2579kMod 73ae2d1
Encoding settings : cabac=1 / ref=11 / deblock=1:-2:-2 / analyse=0x3:0x133 / me=umh / subme=11 / psy=1 / fade_compensate=0.00 / psy_rd=1.00:0.05 / mixed_ref=1 / me_range=48 / chroma_me=1 / trellis=2 / 8x8dct=1 / cqm=0 / deadzone=21,11 / fast_pskip=0 / chroma_qp_offset=-3 / threads=12 / lookahead_threads=3 / sliced_threads=0 / nr=0 / decimate=1 / interlaced=0 / bluray_compat=0 / constrained_intra=0 / fgo=0 / bframes=12 / b_pyramid=2 / b_adapt=2 / b_bias=0 / direct=3 / weightb=1 / open_gop=0 / weightp=2 / keyint=250 / keyint_min=23 / scenecut=40 / intra_refresh=0 / rc_lookahead=60 / rc=crf / mbtree=0 / crf=16.7000 / qcomp=0.60 / qpmin=0 / qpmax=69 / qpstep=4 / vbv_maxrate=50000 / vbv_bufsize=62500 / crf_max=0.0 / nal_hrd=none / filler=0 / ip_ratio=1.40 / pb_ratio=1.30 / aq=3:0.90
Language : English
Default : Yes
Forced : No
Audio #1
ID : 2
Format : AC-3
Format/Info : Audio Coding 3
Mode extension : CM (complete main)
Format settings, Endianness : Big
Codec ID : A_AC3
Duration : 2h 1mn
Bit rate mode : Constant
Bit rate : 448 Kbps
Channel(s) : 6 channels
Channel positions : Front: L C R, Side: L R, LFE
Sampling rate : 48.0 KHz
Compression mode : Lossy
Stream size : 389 MiB (14%)
Title : DUB [Line]
Language : Russian
Default : Yes
Forced : No
Audio #2
ID : 3
Format : AC-3
Format/Info : Audio Coding 3
Mode extension : CM (complete main)
Format settings, Endianness : Big
Codec ID : A_AC3
Duration : 2h 1mn
Bit rate mode : Constant
Bit rate : 448 Kbps
Channel(s) : 6 channels
Channel positions : Front: L C R, Side: L R, LFE
Sampling rate : 48.0 KHz
Compression mode : Lossy
Stream size : 389 MiB (14%)
Title : Original
Language : English
Default : No
Forced : No
Text #1
ID : 4
Format : UTF-8
Codec ID : S_TEXT/UTF8
Codec ID/Info : UTF-8 Plain Text
Title : Forced
Language : Russian
Default : Yes
Forced : No
Text #2
ID : 5
Format : UTF-8
Codec ID : S_TEXT/UTF8
Codec ID/Info : UTF-8 Plain Text
Title : Full [Doctor_Joker]
Language : Russian
Default : No
Forced : No
Text #3
ID : 6
Format : UTF-8
Codec ID : S_TEXT/UTF8
Codec ID/Info : UTF-8 Plain Text
Title : SDH
Language : English
Default : No
Forced : No
Menu
00:00:00.000 : en:Chapter 01
00:07:14.350 : en:Chapter 02
00:12:55.107 : en:Chapter 03
00:20:04.369 : en:Chapter 04
00:25:24.814 : en:Chapter 05
00:32:11.596 : en:Chapter 06
00:39:24.820 : en:Chapter 07
00:46:15.314 : en:Chapter 08
00:53:24.576 : en:Chapter 09
01:01:40.321 : en:Chapter 10
01:10:49.119 : en:Chapter 11
01:18:02.886 : en:Chapter 12
01:30:59.370 : en:Chapter 13
01:36:57.770 : en:Chapter 14
01:47:42.038 : en:Chapter 15
01:54:12.804 : en:Chapter 16
Скриншоты
Скачать

Скачать торрент!

Как скачивать? · Что такое торрент? · Рейтинг и ограничения

Сайт не распространяет и не хранит электронные версии произведений, а лишь предоставляет доступ к создаваемому пользователями каталогу ссылок на торрент-файлы, которые содержат только списки хеш-сумм

[Профиль] [ЛС]
Показать сообщения:    
Ответить на тему

Текущее время: Сегодня 21:59

Часовой пояс: GMT + 4



Вы не можете начинать темы
Вы не можете отвечать на сообщения
Вы не можете редактировать свои сообщения
Вы не можете удалять свои сообщения
Вы не можете голосовать в опросах
Вы не можете прикреплять файлы к сообщениям
Вы не можете скачивать файлы