Убийца / Sicario (Дени Вильнёв / Denis Villeneuve) [2015, США, боевик, триллер, драма, криминал, детектив, BDRip-AVC] Dub (line) + Sub (Rus)

Ответить на тему
 
Автор Сообщение

user ®

Стаж: 7 лет 7 месяцев

Сообщений: 20008

Пост Пост: #1 от 27-Дек-2015 18:42

[Цитировать]

Убийца / Sicario
Выпущено: США / Lionsgate, Black Label Media, Thunder Road.
Жанр: боевик, триллер, драма, криминал, детектив
Год выхода: 2015
Продолжительность: 02:01:20-Озвучивание: Профессиональный (дублированный) [Центральный канал line]
Оригинальная аудио дорожка: нет
Субтитры: Русские (форсированные) | на испанскую речь |-Режиссер: Дени Вильнёв / Denis Villeneuve
В ролях: Эмили Блант (Kate Macer), Бенисио Дель Торо (Alejandro), Джош Бролин (Matt Graver), Виктор Гарбер (Dave Jennings), Джон Бернтал (Ted), Дэниэл Калуя (Reggie Wayne), Джеффри Донован (Steve Forsing), Рауль Трухильо (Rafael), Хулио Седильо (Fausto Alarcon), Хэнк Роджерсон (Phil Coopers), Бернардо Галлегос (Manuel Diaz), Максимилиано Эрнандес (Silvio)-О фильме: На американо-мексиканской границе женщина-полицейский сопровождает двух рейнджеров, которые преследуют наркобарона. Она не подозревает, что по ту сторону границы есть тайное место, где не действуют никакие законы и царят насилие и разврат.- С.э.м.п.л-Качество: BDRip-AVC | исх. BDRemux 1080p |
Формат: MKV (x264)
Видео: 936x390 (2.40:1), 23.976 fps, x264 ~1275 kbps avg, 0.15 bit/pixel
Аудио: 48 kHz, AC3 Dolby Digital, 3/2 (L,C,R,l,r) + LFE ch, ~448.00 kbps avg DUB-

MI
Общее
Уникальный идентификатор                 : 205686366253736697755430843665450242639 (0x9ABDC0D131545262AE47FE7D666F924F)
Полное имя                               : Ubiytca.2015.RUS.BDRip.x264.mgt.1.46GB.mkv
Формат                                   : Matroska
Версия формата                           : Version 4 / Version 2
Размер файла                             : 1,46 Гбайт
Продолжительность                        : 2 ч. 1 м.
Общий поток                              : 1718 Кбит/сек
Название фильма                          : Sicario (2015) - HELLYWOOD
Дата кодирования                         : UTC 2015-12-27 09:39:15
Программа кодирования                    : mkvmerge v6.5.0 ('Isn't she lovely') built on Oct 20 2013 12:50:05
Библиотека кодирования                   : libebml v1.3.0 + libmatroska v1.4.1
Видео
Идентификатор                            : 1
Формат                                   : AVC
Формат/Информация                        : Advanced Video Codec
Профиль формата                          : High@L4.1
Параметр CABAC формата                   : Да
Параметр ReFrames формата                : 12 кадров
Идентификатор кодека                     : V_MPEG4/ISO/AVC
Продолжительность                        : 2 ч. 1 м.
Битрейт                                  : 1275 Кбит/сек
Ширина                                   : 936 пикселей
Высота                                   : 390 пикселей
Соотношение сторон                       : 2,40:1
Режим частоты кадров                     : Постоянный
Частота кадров                           : 23,976 кадра/сек
Цветовое пространство                    : YUV
Субдискретизация насыщенности            : 4:2:0
Битовая глубина                          : 8 бит
Тип развёртки                            : Прогрессивная
Бит/(Пиксели*Кадры)                      : 0.146
Размер потока                            : 1,05 Гбайт (72%)
Заголовок                                : potroks
Библиотека кодирования                   : x264 core 146 r2538 121396c
Настройки программы                      : cabac=1 / ref=12 / deblock=1:-2:-2 / analyse=0x3:0x113 / me=umh / subme=11 / psy=1 / psy_rd=1.06:0.10 / mixed_ref=1 / me_range=48 / chroma_me=1 / trellis=2 / 8x8dct=1 / cqm=0 / deadzone=21,11 / fast_pskip=0 / chroma_qp_offset=-3 / threads=9 / lookahead_threads=2 / sliced_threads=0 / nr=0 / decimate=0 / interlaced=0 / bluray_compat=0 / constrained_intra=0 / bframes=13 / b_pyramid=2 / b_adapt=2 / b_bias=0 / direct=3 / weightb=1 / open_gop=0 / weightp=2 / keyint=250 / keyint_min=23 / scenecut=40 / intra_refresh=0 / rc_lookahead=150 / rc=2pass / mbtree=1 / bitrate=1275 / ratetol=1.0 / qcomp=0.70 / qpmin=0 / qpmax=69 / qpstep=4 / cplxblur=20.0 / qblur=0.5 / vbv_maxrate=14000 / vbv_bufsize=14000 / nal_hrd=none / filler=0 / ip_ratio=1.40 / aq=2:0.80
Язык                                     : English
Default                                  : Да
Forced                                   : Нет
Аудио
Идентификатор                            : 2
Формат                                   : AC-3
Формат/Информация                        : Audio Coding 3
Расширение режима                        : CM (complete main)
Параметр Endianness формата              : Big
Идентификатор кодека                     : A_AC3
Продолжительность                        : 2 ч. 1 м.
Вид битрейта                             : Постоянный
Битрейт                                  : 448 Кбит/сек
Каналы                                   : 6 каналов
Расположение каналов                     : Front: L C R, Side: L R, LFE
Частота                                  : 48,0 КГц
Битовая глубина                          : 16 бит
Метод сжатия                             : С потерями
Размер потока                            : 389 Мбайт (26%)
Default                                  : Да
Forced                                   : Нет
Текст
Идентификатор                            : 3
Формат                                   : UTF-8
Идентификатор кодека                     : S_TEXT/UTF8
Идентификатор кодека/Информация          : UTF-8 Plain Text
Заголовок                                : Форс. (на испанскую речь)
Язык                                     : Russian
Default                                  : Да
Forced                                   : Да
Меню
00:00:00.000                             : en:Chapter 01
00:07:14.350                             : en:Chapter 02
00:12:55.107                             : en:Chapter 03
00:20:04.369                             : en:Chapter 04
00:25:24.814                             : en:Chapter 05
00:32:11.596                             : en:Chapter 06
00:39:24.820                             : en:Chapter 07
00:46:15.314                             : en:Chapter 08
00:53:24.576                             : en:Chapter 09
01:01:40.321                             : en:Chapter 10
01:10:49.119                             : en:Chapter 11
01:18:02.886                             : en:Chapter 12
01:30:59.370                             : en:Chapter 13
01:36:57.770                             : en:Chapter 14
01:47:42.038                             : en:Chapter 15
01:54:12.804                             : en:Chapter 16
Скриншоты
Скачать

Скачать торрент!

Как скачивать? · Что такое торрент? · Рейтинг и ограничения

Сайт не распространяет и не хранит электронные версии произведений, а лишь предоставляет доступ к создаваемому пользователями каталогу ссылок на торрент-файлы, которые содержат только списки хеш-сумм

[Профиль] [ЛС]
Показать сообщения:    
Ответить на тему

Текущее время: Сегодня 00:37

Часовой пояс: GMT + 4



Вы не можете начинать темы
Вы не можете отвечать на сообщения
Вы не можете редактировать свои сообщения
Вы не можете удалять свои сообщения
Вы не можете голосовать в опросах
Вы не можете прикреплять файлы к сообщениям
Вы не можете скачивать файлы