Иерей-сан. Исповедь самурая (Егор Баранов) [2015, Боевик, драма, WEB-DLRip]

Ответить на тему
 
Автор Сообщение

user ®

Стаж: 7 лет 7 месяцев

Сообщений: 20008

Пост Пост: #1 от 26-Дек-2015 08:39

[Цитировать]

Иерей-сан. Исповедь самурая
Жанр: Боевик, драма
Год выпуска: 2015
Продолжительность: 01:41:51
Режиссёр: Егор Баранов
В ролях: Кэри-Хироюки Тагава, Пётр Фёдоров, Иван Охлобыстин, Игорь Жижикин, Петр Мамонов, Дарья Екамасова, Любовь Толкалина, Людмила Чурсина, Надежда Маркина, Алина Бабак
Описание: Главный герой — Такуро Накамура, в крещении отец Николай — священник японской православной церкви, в прошлом профессиональный спортсмен, а в настоящем — родной брат главы одного из влиятельных кланов якудза. Однажды он не смог пройти мимо насилия и защитил обычную девушку, вступив в схватку с людьми из враждебной брату группировки. Война кланов якудза неизбежна. Став заложником криминальных «разборок», священник подвергается смертельной опасности и его отправляют служить в российское село Глубокое, раздираемое внутренними конфликтами. Это место крайне интересно Андрею Нелюбину для земельных махинаций, и он готов пойти на все, чтобы жители покинули родные земли. Отец Николай объединяет сельчан вокруг полуразрушенной церкви. Восстанавливая храм, они возродили мир между собой и приняли вызов. Началась уже совсем другая война…
Сэмпл: http://multi-up.com/1081059
Качество видео: WEB-DLRip
Формат видео: AVI
Видео: XviD, 1659 Кбит/с, 720x304
Аудио: AC3, 6 ch, 384 Кбит/с
MediaInfo
General
Complete name : 7aMuRa1.2015.O.WEB-DLRip.avi
Format : AVI
Format/Info : Audio Video Interleave
File size : 1.46 GiB
Duration : 1h 41mn
Overall bit rate : 2 053 Kbps
Writing application : VirtualDubMod 1.5.10.3 | www.virtualdub-fr.org || (build 2550/release)
Writing library : VirtualDubMod build 2550/release
Video #0
ID : 0
Format : MPEG-4 Visual
Format profile : Advanced Simple@L5
Format settings, BVOP : 2
Format settings, QPel : No
Format settings, GMC : No warppoints
Format settings, Matrix : Default (MPEG)
Codec ID : XVID
Codec ID/Hint : XviD
Duration : 1h 41mn
Bit rate : 1 660 Kbps
Width : 720 pixels
Height : 304 pixels
Display aspect ratio : 2.35:1
Frame rate : 24.000 fps
Color space : YUV
Chroma subsampling : 4:2:0
Bit depth : 8 bits
Scan type : Progressive
Compression mode : Lossy
Bits/(Pixel*Frame) : 0.316
Stream size : 1.18 GiB (81%)
Writing library : XviD 1.2.1 (UTC 2008-12-04)
Audio #1
ID : 1
Format : AC-3
Format/Info : Audio Coding 3
Mode extension : CM (complete main)
Format settings, Endianness : Big
Codec ID : 2000
Duration : 1h 41mn
Bit rate mode : Constant
Bit rate : 384 Kbps
Channel(s) : 6 channels
Channel positions : Front: L C R, Side: L R, LFE
Sampling rate : 48.0 KHz
Bit depth : 16 bits
Compression mode : Lossy
Stream size : 280 MiB (19%)
Alignment : Split accross interleaves
Interleave, duration : 42 ms (1.00 video frame)
Interleave, preload duration : 500 ms
Скриншот c названием фильма Скриншоты
Скачать

Скачать торрент!

Как скачивать? · Что такое торрент? · Рейтинг и ограничения

Сайт не распространяет и не хранит электронные версии произведений, а лишь предоставляет доступ к создаваемому пользователями каталогу ссылок на торрент-файлы, которые содержат только списки хеш-сумм

[Профиль] [ЛС]
Показать сообщения:    
Ответить на тему

Текущее время: Сегодня 09:56

Часовой пояс: GMT + 4



Вы не можете начинать темы
Вы не можете отвечать на сообщения
Вы не можете редактировать свои сообщения
Вы не можете удалять свои сообщения
Вы не можете голосовать в опросах
Вы не можете прикреплять файлы к сообщениям
Вы не можете скачивать файлы