Крепкий орешек: Пенталогия / Die Hard: Pentalogy (Джон МакТирнан / John McTiernan, Ренни Харлин / Renny Harlin, Лен Уайзман) [1988/1990/1995/2007/2013 г., Боевик, BDRemux] DUB, MVO (Киномания + ОРТ), AVO (Гаврилов), Original, Sub

Ответить на тему
 
Автор Сообщение

user ®

Стаж: 7 лет 7 месяцев

Сообщений: 20008

Пост Пост: #1 от 26-Дек-2015 02:30

[Цитировать]

Крепкий орешек: Пенталогия (1988/1990/1995/2007/2013) 1080p BD Remux PROPER Название: Крепкий орешек: Пенталогия
Оригинальное название: Die Hard: Pentalogy
Год выхода: 1988/1990/1995/2007/2013
Жанр: Боевик / триллер / приключения
Режиссер: Джон МакТирнан, Ренни Харлин, Лен Уайзман, Джон Мур
Выпущено: Великобритания | США (20th Century Fox Film Corporation, Dune Entertainment, Giant Pictures, Ingenious Media, Origo Film Group, TSG Entertainment)
Продолжительность: 02:12:10 | 02:03:23 | 02:08:31 | 02:08:42 | 01:41:11
Крепкий орешек / Die Hard (1988) 1080p BD-Remux

В ролях: Брюс Уиллис, Reginald VelJohnson, Бонни Беделиа, Александр Годунов, Пол Глисон, Уильям Атертон, De'voreaux White, Харт Бочнер, Алан Рикман, Дэннис Хейден, Clarence Gilyard Jr., Bruno Doyon, Андреас Вишневски, James Shigeta, Роберт Дави, Гранд Л. Буш, Мэтт Лэндерс, Энтони Пек, Лоренцо Каччаланца, Joey Plewa, Аль Леонг
[/URL]
В суперсовременном небоскребе Лос-Анджелеса полицейский Джон Макклейн ведет смертельную схватку сбандой политических террористов, взявших в заложники два десятка человек, в число которых попадает и его жена. Началось все с того, что парень приехал в город к жене, оказался на рождественском приеме, а кончилось настоящей войной, в которой он, в результате неимоверных усилий, одерживает победу.
Формат: MKV
Видео: 1920x1080 at 23.976 fps, AVC, ~32840 kbps avg
Аудио#1: Russian: 48 kHz, DTS, 3/2 (L,C,R,l,r) + LFE ch,~768.00 kbps avg|Полное дублирование - CEE|
Аудио#2: Russian: 48 kHz, DTS, 3/2 (L,C,R,l,r) + LFE ch,~768.00 kbps avg|Многоголосый закадровый - ОРТ|
Аудио#3: Russian: 48 kHz, DTS-HD MA, 3/2 (L,C,R,l,r) + LFE ch,~4030.00 kbps avg|Многоголосый закадровый - Киномания|
Аудио#4: Russian: 48 kHz, DTS-HD MA, 3/2 (L,C,R,l,r) + LFE ch,~4024.00 kbps avg|Одноголосый закадровый - Гаврилов|
Аудио#5: English: 48 kHz, DTS-HD MA, 3/2 (L,C,R,l,r) + LFE ch,~4013.00 kbps
Субтитры: Russian (Blu-ray CEE), Russian (Forced), English
MediaInfo
General
Unique ID                   : 196225616267227728286642451876890382305 (0x939FADD46AF8C8BD878577E9D70D8FE1)
Complete name               : D:\VIDEO\Крепкий орешек. Пенталогия Remux\Крепкий орешек 1 (1988) Remux.mkv
Format                      : Matroska
Format version              : Version 4 / Version 2
File size                   : 42.8 GiB
Duration                    : 2h 12mn
Overall bit rate mode       : Variable
Overall bit rate            : 46.3 Mbps
Encoded date                : UTC 2015-12-24 12:00:46
Writing application         : mkvmerge v8.6.1 ('Flying') 64bit
Writing library             : libebml v1.3.3 + libmatroska v1.4.4
Video
ID                          : 1
Format                      : AVC
Format/Info                 : Advanced Video Codec
Format profile              : High@L4.1
Format settings, CABAC      : Yes
Format settings, ReFrames   : 4 frames
Codec ID                    : V_MPEG4/ISO/AVC
Duration                    : 2h 12mn
Bit rate mode               : Variable
Bit rate                    : 32.7 Mbps
Maximum bit rate            : 35.0 Mbps
Width                       : 1 920 pixels
Height                      : 1 080 pixels
Display aspect ratio        : 16:9
Frame rate mode             : Constant
Frame rate                  : 23.976 (24000/1001) fps
Color space                 : YUV
Chroma subsampling          : 4:2:0
Bit depth                   : 8 bits
Scan type                   : Progressive
Bits/(Pixel*Frame)          : 0.658
Stream size                 : 30.2 GiB (71%)
Default                     : Yes
Forced                      : No
Color range                 : Limited
Color primaries             : BT.709
Transfer characteristics    : BT.709
Matrix coefficients         : BT.709
Audio #1
ID                          : 2
Format                      : DTS
Format/Info                 : Digital Theater Systems
Mode                        : 16
Format settings, Endianness : Big
Codec ID                    : A_DTS
Duration                    : 2h 12mn
Bit rate mode               : Constant
Bit rate                    : 768 Kbps
Channel(s)                  : 6 channels
Channel positions           : Front: L C R, Side: L R, LFE
Sampling rate               : 48.0 KHz
Frame rate                  : 93.750 fps (512 spf)
Bit depth                   : 24 bits
Compression mode            : Lossy
Stream size                 : 726 MiB (2%)
Title                       : Дубляж, Blu-ray CEE
Language                    : Russian
Default                     : Yes
Forced                      : Yes
Audio #2
ID                          : 3
Format                      : DTS
Format/Info                 : Digital Theater Systems
Mode                        : 16
Format settings, Endianness : Big
Codec ID                    : A_DTS
Duration                    : 2h 12mn
Bit rate mode               : Constant
Bit rate                    : 755 Kbps
Channel(s)                  : 6 channels
Channel positions           : Front: L C R, Side: L R, LFE
Sampling rate               : 48.0 KHz
Frame rate                  : 93.750 fps (512 spf)
Bit depth                   : 24 bits
Compression mode            : Lossy
Stream size                 : 713 MiB (2%)
Title                       : Многоголосый закадровый, ОРТ
Language                    : Russian
Default                     : No
Forced                      : No
Audio #3
ID                          : 4
Format                      : DTS
Format/Info                 : Digital Theater Systems
Format profile              : MA / Core
Mode                        : 16
Format settings, Endianness : Big
Codec ID                    : A_DTS
Duration                    : 2h 12mn
Bit rate mode               : Variable / Constant
Bit rate                    : 4 030 Kbps / 1 509 Kbps
Channel(s)                  : 6 channels
Channel positions           : Front: L C R, Side: L R, LFE
Sampling rate               : 48.0 KHz
Frame rate                  : 93.750 fps (512 spf)
Bit depth                   : 24 bits
Compression mode            : Lossless / Lossy
Stream size                 : 3.72 GiB (9%)
Title                       : Многоголосый закадровый, Киномания
Language                    : Russian
Default                     : No
Forced                      : No
Audio #4
ID                          : 5
Format                      : DTS
Format/Info                 : Digital Theater Systems
Format profile              : MA / Core
Mode                        : 16
Format settings, Endianness : Big
Codec ID                    : A_DTS
Duration                    : 2h 12mn
Bit rate mode               : Variable / Constant
Bit rate                    : 4 024 Kbps / 1 509 Kbps
Channel(s)                  : 6 channels
Channel positions           : Front: L C R, Side: L R, LFE
Sampling rate               : 48.0 KHz
Frame rate                  : 93.750 fps (512 spf)
Bit depth                   : 24 bits
Compression mode            : Lossless / Lossy
Stream size                 : 3.72 GiB (9%)
Title                       : Одноголосый закадровый, А.Гаврилов
Language                    : Russian
Default                     : No
Forced                      : No
Audio #5
ID                          : 6
Format                      : DTS
Format/Info                 : Digital Theater Systems
Format profile              : MA / Core
Mode                        : 16
Format settings, Endianness : Big
Codec ID                    : A_DTS
Duration                    : 2h 12mn
Bit rate mode               : Variable / Constant
Bit rate                    : 4 013 Kbps / 1 509 Kbps
Channel(s)                  : 6 channels
Channel positions           : Front: L C R, Side: L R, LFE
Sampling rate               : 48.0 KHz
Frame rate                  : 93.750 fps (512 spf)
Bit depth                   : 24 bits
Compression mode            : Lossless / Lossy
Stream size                 : 3.71 GiB (9%)
Language                    : English
Default                     : No
Forced                      : No
Text #1
ID                          : 7
Format                      : PGS
Muxing mode                 : zlib
Codec ID                    : S_HDMV/PGS
Codec ID/Info               : Picture based subtitle format used on BDs/HD-DVDs
Duration                    : 2h 11mn
Bit rate                    : 7 617 bps
Count of elements           : 2718
Stream size                 : 7.15 MiB (0%)
Language                    : Russian
Default                     : No
Forced                      : No
Text #2
ID                          : 8
Format                      : PGS
Muxing mode                 : zlib
Codec ID                    : S_HDMV/PGS
Codec ID/Info               : Picture based subtitle format used on BDs/HD-DVDs
Duration                    : 2h 11mn
Bit rate                    : 9 095 bps
Count of elements           : 2988
Stream size                 : 8.53 MiB (0%)
Language                    : English
Default                     : No
Forced                      : No

-
-Крепкий орешек 2 / Die Hard 2 (1990) 1080p BD-Remux

В ролях: Брюс Уиллис, Бонни Беделиа, Уильям Атертон, Уильям Сэдлер, Reginald VelJohnson, Франко Неро, Джон Амос, Дэннис Франц, Арт Эванс, Фред Далтон Томпсон, Том Бауэр, Шила МакКарти, Дон Харви, Tony Ganios, Питер Нельсон, Роберт Патрик, Майкл Каннингэм, Джон Легуизамо, Том Верика, Джон Костелло, Вонди Куртис-Холл
[/URL]
В канун Рождества группа террористов захватила международный аэропорт итеперь удерживает тысячи путешествующих в качестве заложников. Террористы — банда отступников из первоклассно вооруженных коммандос, возглавляемых одержимым жестокостью офицером. Их цель — спасти наркобарона. Банда подготовлена ко всевозможным случайностям, за исключением одной — встречи с Джоном Макклейном. Брюс Уиллис возвращается в роли супергероя-полицейского, который сражается не только с террористами, но и с некомпетентным шефом полиции аэропорта, тупоголовым начальником антитеррористического подразделения и страшным снежным бураном.
Формат: MKV
Видео: 1920x1080 at 23.976 fps, AVC, ~31999 kbps avg
Аудио#1: Russian: 48 kHz, DTS, 3/2 (L,C,R,l,r) + LFE ch,~768.00 kbps avg|Полное дублирование - CEE|
Аудио#2: Russian: 48 kHz, DTS, 3/2 (L,C,R,l,r) + LFE ch,~768.00 kbps avg|Многоголосый закадровый - ОРТ|
Аудио#3: Russian: 48 kHz, DTS-HD MA, 3/2 (L,C,R,l,r) + LFE ch,~2214.00 kbps avg|Многоголосый закадровый - Киномания|
Аудио#4: Russian: 48 kHz, DTS-HD MA, 3/2 (L,C,R,l,r) + LFE ch,~2164.00 kbps avg|Одноголосый закадровый - Гаврилов|
Аудио#5: English: 48 kHz, DTS-HD MA, 3/2 (L,C,R,l,r) + LFE ch,~2271.00 kbps
Субтитры: Russian (Blu-ray CEE), Russian (Forced), English
MediaInfo
General
Unique ID                   : 222811641450457966987040873875797155834 (0xA79FF612B1B7648FBC8BA53BB6C79FFA)
Complete name               : D:\VIDEO\Крепкий орешек. Пенталогия Remux\Крепкий орешек 2 (1990) Remux.mkv
Format                      : Matroska
Format version              : Version 4 / Version 2
File size                   : 34.6 GiB
Duration                    : 2h 3mn
Overall bit rate mode       : Variable
Overall bit rate            : 40.1 Mbps
Encoded date                : UTC 2015-12-24 14:16:07
Writing application         : mkvmerge v8.6.1 ('Flying') 64bit
Writing library             : libebml v1.3.3 + libmatroska v1.4.4
Video
ID                          : 1
Format                      : AVC
Format/Info                 : Advanced Video Codec
Format profile              : High@L4.1
Format settings, CABAC      : Yes
Format settings, ReFrames   : 4 frames
Codec ID                    : V_MPEG4/ISO/AVC
Duration                    : 2h 3mn
Bit rate mode               : Variable
Bit rate                    : 31.9 Mbps
Maximum bit rate            : 36.0 Mbps
Width                       : 1 920 pixels
Height                      : 1 080 pixels
Display aspect ratio        : 16:9
Frame rate mode             : Constant
Frame rate                  : 23.976 (24000/1001) fps
Color space                 : YUV
Chroma subsampling          : 4:2:0
Bit depth                   : 8 bits
Scan type                   : Progressive
Bits/(Pixel*Frame)          : 0.642
Stream size                 : 27.5 GiB (80%)
Default                     : Yes
Forced                      : No
Color range                 : Limited
Color primaries             : BT.709
Transfer characteristics    : BT.709
Matrix coefficients         : BT.709
Audio #1
ID                          : 2
Format                      : DTS
Format/Info                 : Digital Theater Systems
Mode                        : 16
Format settings, Endianness : Big
Codec ID                    : A_DTS
Duration                    : 2h 3mn
Bit rate mode               : Constant
Bit rate                    : 768 Kbps
Channel(s)                  : 6 channels
Channel positions           : Front: L C R, Side: L R, LFE
Sampling rate               : 48.0 KHz
Frame rate                  : 93.750 fps (512 spf)
Bit depth                   : 24 bits
Compression mode            : Lossy
Stream size                 : 678 MiB (2%)
Title                       : Дубляж, Blu-ray CEE
Language                    : Russian
Default                     : Yes
Forced                      : Yes
Audio #2
ID                          : 3
Format                      : DTS
Format/Info                 : Digital Theater Systems
Mode                        : 16
Format settings, Endianness : Big
Codec ID                    : A_DTS
Duration                    : 2h 3mn
Bit rate mode               : Constant
Bit rate                    : 755 Kbps
Channel(s)                  : 6 channels
Channel positions           : Front: L C R, Side: L R, LFE
Sampling rate               : 48.0 KHz
Frame rate                  : 93.750 fps (512 spf)
Bit depth                   : 24 bits
Compression mode            : Lossy
Stream size                 : 666 MiB (2%)
Title                       : Многоголосый закадровый, ОРТ
Language                    : Russian
Default                     : No
Forced                      : No
Audio #3
ID                          : 4
Format                      : DTS
Format/Info                 : Digital Theater Systems
Format profile              : MA / Core
Mode                        : 16
Format settings, Endianness : Big
Codec ID                    : A_DTS
Duration                    : 2h 3mn
Bit rate mode               : Variable / Constant
Bit rate                    : 2 214 Kbps / 1 509 Kbps
Channel(s)                  : 6 channels
Channel positions           : Front: L C R, Side: L R, LFE
Sampling rate               : 48.0 KHz
Frame rate                  : 93.750 fps (512 spf)
Bit depth                   : 16 bits
Compression mode            : Lossless / Lossy
Stream size                 : 1.91 GiB (6%)
Title                       : Многоголосый закадровый, Киномания
Language                    : Russian
Default                     : No
Forced                      : No
Audio #4
ID                          : 5
Format                      : DTS
Format/Info                 : Digital Theater Systems
Format profile              : MA / Core
Mode                        : 16
Format settings, Endianness : Big
Codec ID                    : A_DTS
Duration                    : 2h 3mn
Bit rate mode               : Variable / Constant
Bit rate                    : 2 164 Kbps / 1 509 Kbps
Channel(s)                  : 6 channels
Channel positions           : Front: L C R, Side: L R, LFE
Sampling rate               : 48.0 KHz
Frame rate                  : 93.750 fps (512 spf)
Bit depth                   : 16 bits
Compression mode            : Lossless / Lossy
Stream size                 : 1.87 GiB (5%)
Title                       : Одноголосый закадровый, А.Гаврилов
Language                    : Russian
Default                     : No
Forced                      : No
Audio #5
ID                          : 6
Format                      : DTS
Format/Info                 : Digital Theater Systems
Format profile              : MA / Core
Mode                        : 16
Format settings, Endianness : Big
Codec ID                    : A_DTS
Duration                    : 2h 3mn
Bit rate mode               : Variable / Constant
Bit rate                    : 2 271 Kbps / 1 509 Kbps
Channel(s)                  : 6 channels
Channel positions           : Front: L C R, Side: L R, LFE
Sampling rate               : 48.0 KHz
Frame rate                  : 93.750 fps (512 spf)
Bit depth                   : 24 bits
Compression mode            : Lossless / Lossy
Stream size                 : 1.96 GiB (6%)
Language                    : English
Default                     : No
Forced                      : No
Text #1
ID                          : 7
Format                      : PGS
Muxing mode                 : zlib
Codec ID                    : S_HDMV/PGS
Codec ID/Info               : Picture based subtitle format used on BDs/HD-DVDs
Duration                    : 2h 2mn
Bit rate                    : 8 644 bps
Count of elements           : 2274
Stream size                 : 7.59 MiB (0%)
Language                    : Russian
Default                     : No
Forced                      : No
Text #2
ID                          : 8
Format                      : PGS
Muxing mode                 : zlib
Codec ID                    : S_HDMV/PGS
Codec ID/Info               : Picture based subtitle format used on BDs/HD-DVDs
Duration                    : 2h 2mn
Bit rate                    : 9 106 bps
Count of elements           : 2202
Stream size                 : 7.99 MiB (0%)
Language                    : English
Default                     : No
Forced                      : No

-
-Крепкий орешек 3 / Die Hard: With a Vengeance (1995) 1080p BD-Remux

В ролях: Брюс Уиллис, Джереми Айронс, Сэмюэл Л. Джексон, Грэхэм Грин, Коллин Кэмп, Ларри Бриггман, Энтони Пек, Николас Уаймэн, Сэм Филлипс, Кевин Чамберлен, Шарон Вашингтон, Stephen Pearlman, Майкл Александер Джексон, Aldis Hodge, Mischa Hausserman, Эдвин Ходж, Роберт Седжвик, Tony Halme, Билл Крист, Энтони Томас, Гленн Херман
[/URL]
На улицах Нью-Йорка офицер полиции Джон Макклейн видел все, что только возможно. На этот раз для того, чтобы отомстить Макклейну, террорист Саймон, виртуозно устраивающий взрывы, заставляет героя — полицейского играть в смертельную игру. Ставка — город Нью-Йорк. Макклейн вынужден метаться по городу, следуя телефонным указаниям Саймона, готового разнести пол — Нью-Йорка за малейшее отклонение от его требований.И в то время, как вся полиция города занята поисками террористов, преступники похищают золотой запас Национального банка США. У Макклейна бывали неудачные деньки за годы службы в полиции, но сегодня у него, похоже, будет исключительно скверный день…
Формат: MKV
Видео: 1920x1080 at 23.976 fps, AVC, ~28396 kbps avg
Аудио#1: Russian: 48 kHz, AC3, 3/2 (L,C,R,l,r) + LFE ch,~448.00 kbps avg|Многоголосый закадровый, R5 Гемини|
Аудио#2: Russian: 48 kHz, DTS, 3/2 (L,C,R,l,r) + LFE ch,~768.00 kbps avg|Многоголосый закадровый - ОРТ|
Аудио#3: Russian: 48 kHz, DTS-HD MA, 3/2 (L,C,R,l,r) + LFE ch,~2300.00 kbps avg|Многоголосый закадровый - Киномания|
Аудио#4: Russian: 48 kHz, DTS-HD MA, 3/2 (L,C,R,l,r) + LFE ch,~2285.00 kbps avg|Одноголосый закадровый - Гаврилов|
Аудио#5: English: 48 kHz, DTS-HD MA, 3/2 (L,C,R,l,r) + LFE ch,~2703.00 kbps
Субтитры: Russian (Blu-ray CEE), Russian (Forced), English
MediaInfo
General
Unique ID                   : 226823831302134513745665221946790874427 (0xAAA4AE4E2FEC3D71BF79331301E78D3B)
Complete name               : D:\VIDEO\Крепкий орешек. Пенталогия Remux\Крепкий орешек 3. Возмездие (1995) Remux.mkv
Format                      : Matroska
Format version              : Version 4 / Version 2
File size                   : 33.2 GiB
Duration                    : 2h 8mn
Overall bit rate mode       : Variable
Overall bit rate            : 36.9 Mbps
Encoded date                : UTC 2015-12-24 15:53:44
Writing application         : mkvmerge v8.6.1 ('Flying') 64bit
Writing library             : libebml v1.3.3 + libmatroska v1.4.4
Video
ID                          : 1
Format                      : AVC
Format/Info                 : Advanced Video Codec
Format profile              : High@L4.1
Format settings, CABAC      : Yes
Format settings, ReFrames   : 3 frames
Codec ID                    : V_MPEG4/ISO/AVC
Duration                    : 2h 8mn
Bit rate mode               : Variable
Bit rate                    : 28.4 Mbps
Maximum bit rate            : 40.0 Mbps
Width                       : 1 920 pixels
Height                      : 1 080 pixels
Display aspect ratio        : 16:9
Frame rate mode             : Constant
Frame rate                  : 23.976 (24000/1001) fps
Color space                 : YUV
Chroma subsampling          : 4:2:0
Bit depth                   : 8 bits
Scan type                   : Progressive
Bits/(Pixel*Frame)          : 0.571
Stream size                 : 25.5 GiB (77%)
Default                     : Yes
Forced                      : No
Audio #1
ID                          : 2
Format                      : AC-3
Format/Info                 : Audio Coding 3
Mode extension              : CM (complete main)
Format settings, Endianness : Big
Codec ID                    : A_AC3
Duration                    : 2h 8mn
Bit rate mode               : Constant
Bit rate                    : 448 Kbps
Channel(s)                  : 6 channels
Channel positions           : Front: L C R, Side: L R, LFE
Sampling rate               : 48.0 KHz
Frame rate                  : 31.250 fps (1536 spf)
Compression mode            : Lossy
Stream size                 : 412 MiB (1%)
Title                       : Многоголосый закадровый, R5 Гемини
Language                    : Russian
Default                     : Yes
Forced                      : Yes
Audio #2
ID                          : 3
Format                      : DTS
Format/Info                 : Digital Theater Systems
Mode                        : 16
Format settings, Endianness : Big
Codec ID                    : A_DTS
Duration                    : 2h 8mn
Bit rate mode               : Constant
Bit rate                    : 755 Kbps
Channel(s)                  : 6 channels
Channel positions           : Front: L C R, Side: L R, LFE
Sampling rate               : 48.0 KHz
Frame rate                  : 93.750 fps (512 spf)
Bit depth                   : 24 bits
Compression mode            : Lossy
Stream size                 : 694 MiB (2%)
Title                       : Многоголосый закадровый, ОРТ
Language                    : Russian
Default                     : No
Forced                      : No
Audio #3
ID                          : 4
Format                      : DTS
Format/Info                 : Digital Theater Systems
Format profile              : MA / Core
Mode                        : 16
Format settings, Endianness : Big
Codec ID                    : A_DTS
Duration                    : 2h 8mn
Bit rate mode               : Variable / Constant
Bit rate                    : 2 300 Kbps / 1 509 Kbps
Channel(s)                  : 6 channels
Channel positions           : Front: L C R, Side: L R, LFE
Sampling rate               : 48.0 KHz
Frame rate                  : 93.750 fps (512 spf)
Bit depth                   : 16 bits
Compression mode            : Lossless / Lossy
Stream size                 : 2.06 GiB (6%)
Title                       : Многоголосый закадровый, Киномания
Language                    : Russian
Default                     : No
Forced                      : No
Audio #4
ID                          : 5
Format                      : DTS
Format/Info                 : Digital Theater Systems
Format profile              : MA / Core
Mode                        : 16
Format settings, Endianness : Big
Codec ID                    : A_DTS
Duration                    : 2h 8mn
Bit rate mode               : Variable / Constant
Bit rate                    : 2 285 Kbps / 1 509 Kbps
Channel(s)                  : 6 channels
Channel positions           : Front: L C R, Side: L R, LFE
Sampling rate               : 48.0 KHz
Frame rate                  : 93.750 fps (512 spf)
Bit depth                   : 16 bits
Compression mode            : Lossless / Lossy
Stream size                 : 2.05 GiB (6%)
Title                       : Одноголосый закадровый, А.Гаврилов
Language                    : Russian
Default                     : No
Forced                      : No
Audio #5
ID                          : 6
Format                      : DTS
Format/Info                 : Digital Theater Systems
Format profile              : MA / Core
Mode                        : 16
Format settings, Endianness : Big
Codec ID                    : A_DTS
Duration                    : 2h 8mn
Bit rate mode               : Variable / Constant
Bit rate                    : 2 703 Kbps / 1 509 Kbps
Channel(s)                  : 6 channels
Channel positions           : Front: L C R, Side: L R, LFE
Sampling rate               : 48.0 KHz
Frame rate                  : 93.750 fps (512 spf)
Bit depth                   : 24 bits
Compression mode            : Lossless / Lossy
Stream size                 : 2.43 GiB (7%)
Language                    : English
Default                     : No
Forced                      : No
Text #1
ID                          : 7
Format                      : PGS
Muxing mode                 : zlib
Codec ID                    : S_HDMV/PGS
Codec ID/Info               : Picture based subtitle format used on BDs/HD-DVDs
Duration                    : 2h 0mn
Bit rate                    : 6 350 bps
Count of elements           : 2702
Stream size                 : 5.46 MiB (0%)
Language                    : Russian
Default                     : No
Forced                      : No
Text #2
ID                          : 8
Format                      : PGS
Muxing mode                 : zlib
Codec ID                    : S_HDMV/PGS
Codec ID/Info               : Picture based subtitle format used on BDs/HD-DVDs
Duration                    : 2h 0mn
Bit rate                    : 7 868 bps
Count of elements           : 4698
Stream size                 : 6.77 MiB (0%)
Language                    : Russian
Default                     : No
Forced                      : No
Text #3
ID                          : 9
Format                      : PGS
Muxing mode                 : zlib
Codec ID                    : S_HDMV/PGS
Codec ID/Info               : Picture based subtitle format used on BDs/HD-DVDs
Duration                    : 2h 0mn
Bit rate                    : 32.5 Kbps
Count of elements           : 3482
Stream size                 : 28.0 MiB (0%)
Language                    : English
Default                     : No
Forced                      : No

-
-Крепкий орешек 4.0 / Live Free or Die Hard (2007) 1080p BD-Remux

В ролях: Брюс Уиллис, Тимоти Олифэнт, Джастин Лонг, Мэгги Кью, Клифф Кертис, Джонатан Садовский, Эндрю Фридман, Кевин Смит, Йорго Константин, Кирилл Раффаелли, Крис Палермо, Мэри Элизабет Уинстэд, Санг Кенг, Желько Иванек, Кристина Чанг, Джэйк Макдоман, Розмари Ноуэр, Джералд Дауни, Аллен Мальдонадо, Jim Cantafio, Крис Эллис
[/URL]
Детектив Джон МакКлейн снова вдействии — на этот раз он противостоит новому поколению терроризма. События картины разворачиваются в сегодняшнем мире компьютеризации. Компьютерная инфраструктура нации, контролирующая все коммуникации, транспортные средства и власть, может быть полностью разрушена. Вдохновитель заговора просчитал все. Что он не учел, так это МакКлейна, полицейского старой закалки, который знает несколько способов разрушить планы террористов.
Формат: MKV
Видео: 1920x1080 at 23.976 fps, AVC, ~31999 kbps avg
Аудио#1: Russian: 48 kHz, DTS, 3/2 (L,C,R,l,r) + LFE ch,~768.00 kbps avg|Полное дублирование - CEE|
Аудио#2: Russian: 48 kHz, DTS, 3/2 (L,C,R,l,r) + LFE ch,~768.00 kbps avg|Многоголосый закадровый - Киномания|
Аудио#3: Russian: 48 kHz, DTS-HD MA, 3/2 (L,C,R,l,r) + LFE ch,~4127.00 kbps avg|Одноголосый закадровый - Гаврилов|
Аудио#4: English: 48 kHz, DTS-HD MA, 3/2 (L,C,R,l,r) + LFE ch,~4092.00 kbps
Субтитры: Russian (Blu-ray CEE), English
MediaInfo
General
Unique ID                   : 212869536543169533124770934455329689557 (0xA0252E74A9AA156BBF0363826B990FD5)
Complete name               : D:\VIDEO\Крепкий орешек. Пенталогия Remux\Крепкий орешек 4.0 (2007) Remux.mkv
Format                      : Matroska
Format version              : Version 4 / Version 2
File size                   : 32.0 GiB
Duration                    : 2h 8mn
Overall bit rate mode       : Variable
Overall bit rate            : 35.5 Mbps
Encoded date                : UTC 2015-12-24 18:14:49
Writing application         : mkvmerge v8.6.1 ('Flying') 64bit
Writing library             : libebml v1.3.3 + libmatroska v1.4.4
Video
ID                          : 1
Format                      : AVC
Format/Info                 : Advanced Video Codec
Format profile              : High@L4.1
Format settings, CABAC      : Yes
Format settings, ReFrames   : 4 frames
Codec ID                    : V_MPEG4/ISO/AVC
Duration                    : 2h 8mn
Bit rate mode               : Variable
Bit rate                    : 25.8 Mbps
Maximum bit rate            : 34.0 Mbps
Width                       : 1 920 pixels
Height                      : 1 080 pixels
Display aspect ratio        : 16:9
Frame rate mode             : Constant
Frame rate                  : 23.976 (24000/1001) fps
Color space                 : YUV
Chroma subsampling          : 4:2:0
Bit depth                   : 8 bits
Scan type                   : Progressive
Bits/(Pixel*Frame)          : 0.519
Stream size                 : 23.2 GiB (73%)
Default                     : Yes
Forced                      : No
Color range                 : Limited
Color primaries             : BT.709
Transfer characteristics    : BT.709
Matrix coefficients         : BT.709
Audio #1
ID                          : 2
Format                      : DTS
Format/Info                 : Digital Theater Systems
Mode                        : 16
Format settings, Endianness : Big
Codec ID                    : A_DTS
Duration                    : 2h 8mn
Bit rate mode               : Constant
Bit rate                    : 768 Kbps
Channel(s)                  : 6 channels
Channel positions           : Front: L C R, Side: L R, LFE
Sampling rate               : 48.0 KHz
Frame rate                  : 93.750 fps (512 spf)
Bit depth                   : 24 bits
Compression mode            : Lossy
Stream size                 : 707 MiB (2%)
Title                       : Дубляж
Language                    : Russian
Default                     : Yes
Forced                      : Yes
Audio #2
ID                          : 3
Format                      : DTS
Format/Info                 : Digital Theater Systems
Mode                        : 16
Format settings, Endianness : Big
Codec ID                    : A_DTS
Duration                    : 2h 8mn
Bit rate mode               : Constant
Bit rate                    : 768 Kbps
Channel(s)                  : 6 channels
Channel positions           : Front: L C R, Side: L R, LFE
Sampling rate               : 48.0 KHz
Frame rate                  : 93.750 fps (512 spf)
Bit depth                   : 24 bits
Compression mode            : Lossy
Stream size                 : 707 MiB (2%)
Title                       : Многоголосый закадровый, Киномания
Language                    : Russian
Default                     : No
Forced                      : No
Audio #3
ID                          : 4
Format                      : DTS
Format/Info                 : Digital Theater Systems
Format profile              : MA / Core
Mode                        : 16
Format settings, Endianness : Big
Codec ID                    : A_DTS
Duration                    : 2h 8mn
Bit rate mode               : Variable / Constant
Bit rate                    : 4 127 Kbps / 1 509 Kbps
Channel(s)                  : 6 channels
Channel positions           : Front: L C R, Side: L R, LFE
Sampling rate               : 48.0 KHz
Frame rate                  : 93.750 fps (512 spf)
Bit depth                   : 24 bits
Compression mode            : Lossless / Lossy
Stream size                 : 3.71 GiB (12%)
Title                       : Одноголосый закадровый, А.Гаврилов
Language                    : Russian
Default                     : No
Forced                      : No
Audio #4
ID                          : 5
Format                      : DTS
Format/Info                 : Digital Theater Systems
Format profile              : MA / Core
Mode                        : 16
Format settings, Endianness : Big
Codec ID                    : A_DTS
Duration                    : 2h 8mn
Bit rate mode               : Variable / Constant
Bit rate                    : 4 092 Kbps / 1 509 Kbps
Channel(s)                  : 6 channels
Channel positions           : Front: L C R, Side: L R, LFE
Sampling rate               : 48.0 KHz
Frame rate                  : 93.750 fps (512 spf)
Bit depth                   : 24 bits
Compression mode            : Lossless / Lossy
Stream size                 : 3.68 GiB (11%)
Language                    : English
Default                     : No
Forced                      : No
Text #1
ID                          : 6
Format                      : PGS
Muxing mode                 : zlib
Codec ID                    : S_HDMV/PGS
Codec ID/Info               : Picture based subtitle format used on BDs/HD-DVDs
Duration                    : 2h 8mn
Bit rate                    : 8 338 bps
Count of elements           : 2506
Stream size                 : 7.64 MiB (0%)
Language                    : Russian
Default                     : No
Forced                      : No
Text #2
ID                          : 7
Format                      : PGS
Muxing mode                 : zlib
Codec ID                    : S_HDMV/PGS
Codec ID/Info               : Picture based subtitle format used on BDs/HD-DVDs
Duration                    : 2h 7mn
Bit rate                    : 9 078 bps
Count of elements           : 2548
Stream size                 : 8.31 MiB (0%)
Language                    : English
Default                     : No
Forced                      : No

-
-Крепкий орешек: Хороший день, чтобы умереть / A Good Day to Die Hard (2013) 1080p BD-Remux

В ролях: Брюс Уиллис, Джай Кортни, Себастьян Кох, Юлия Снигирь, Радивойе Буквич, Сергей Колесников, Мэри Элизабет Уинстэд, Коул Хаузер, Амори Ноласко, Роман Лукнар, Павел Личникофф, Мэгалин Эчиканвоке, Мелисса Тэнг, Рико Симонини, Катрин Кресг, Эйприл Грэйс, Купер Торнтон

Джон МакКлейн узнаёт, что его сын Джек сидит в московской тюрьме - он замешан в заказном убийстве. И вот, непредсказуемый крепкий орешек едет в столицу ещё более непредсказуемой России выручать своего сына. Но, пытаясь помочь Джеку, МакКлейн невольно срывает его планы, потому что его шалопай, оказывается, шпион и агент ЦРУ. И отец с сыном объединяют свои силы, чтобы уйти от погони, которая совсем не входила в планы Джека, а в результате - не один широкий проспект Москвы превратится в автомобильное кладбище только что бегавших, блестя тонировкой и никелем, машин. Удастся ли им вместе спасти мир от тотальной угрозы? Ведь, вполне возможно, что Чернобыль ещё не всё "сказал"...
Формат: MKV
Видео: 1920x1080 at 23.976 fps, AVC, ~22760 kbps avg
Аудио#1: Russian: 48 kHz, DTS-HD MA, 8 channel,~5143.00 kbps avg|Полное дублирование - CEE|
Аудио#3: Russian: 48 kHz, DTS-HD MA, 8 channel,~5793.00 kbps avg|Одноголосый закадровый - Гаврилов|
Аудио#4: English: 48 kHz, DTS-HD MA, 8 channel,~5759.00 kbps
Субтитры: Russian (Blu-ray CEE), English

MediaInfo
General
Unique ID                   : 235760764221402952325724198993222069628 (0xB15DDF1E1196065DA976DB3F38A66D7C)
Complete name               : D:\VIDEO\Крепкий орешек. Пенталогия Remux\Крепкий орешек 5. Хороший день, чтобы умереть [Extended Cut] (2013) Remux.mkv
Format                      : Matroska
Format version              : Version 4 / Version 2
File size                   : 27.9 GiB
Duration                    : 1h 41mn
Overall bit rate mode       : Variable
Overall bit rate            : 39.5 Mbps
Movie name                  : A Good Day to Die Hard.2013
Encoded date                : UTC 2015-12-25 07:04:18
Writing application         : mkvmerge v8.6.1 ('Flying') 64bit
Writing library             : libebml v1.3.3 + libmatroska v1.4.4
Video
ID                          : 1
Format                      : AVC
Format/Info                 : Advanced Video Codec
Format profile              : High@L4.1
Format settings, CABAC      : Yes
Format settings, ReFrames   : 4 frames
Codec ID                    : V_MPEG4/ISO/AVC
Duration                    : 1h 41mn
Bit rate mode               : Variable
Bit rate                    : 22.8 Mbps
Maximum bit rate            : 34.0 Mbps
Width                       : 1 920 pixels
Height                      : 1 080 pixels
Display aspect ratio        : 16:9
Frame rate mode             : Constant
Frame rate                  : 23.976 (24000/1001) fps
Color space                 : YUV
Chroma subsampling          : 4:2:0
Bit depth                   : 8 bits
Scan type                   : Progressive
Bits/(Pixel*Frame)          : 0.458
Stream size                 : 16.1 GiB (58%)
Default                     : Yes
Forced                      : No
Audio #1
ID                          : 2
Format                      : DTS
Format/Info                 : Digital Theater Systems
Format profile              : MA / Core
Mode                        : 16
Format settings, Endianness : Big
Codec ID                    : A_DTS
Duration                    : 1h 41mn
Bit rate mode               : Variable / Constant
Bit rate                    : 5 143 Kbps / 1 509 Kbps
Channel(s)                  : 8 channels / 6 channels
Channel positions           : Front: L C R, Side: L R, Back: L R, LFE / Front: L C R, Side: L R, LFE
Sampling rate               : 48.0 KHz
Frame rate                  : 93.750 fps (512 spf)
Bit depth                   : 24 bits
Compression mode            : Lossless / Lossy
Stream size                 : 3.63 GiB (13%)
Title                       : Дубляж
Language                    : Russian
Default                     : Yes
Forced                      : No
Audio #2
ID                          : 3
Format                      : DTS
Format/Info                 : Digital Theater Systems
Format profile              : MA / ES Matrix / Core
Mode                        : 16
Format settings, Endianness : Big
Codec ID                    : A_DTS
Duration                    : 1h 41mn
Bit rate mode               : Variable / Constant / Constant
Bit rate                    : 5 793 Kbps / 1 509 Kbps / 1 509 Kbps
Channel(s)                  : 8 channels / 7 channels / 6 channels
Channel positions           : Front: L C R, Side: L R, Back: L R, LFE / Front: L C R, Side: L R, Back: C, LFE / Front: L C R, Side: L R, LFE
Sampling rate               : 48.0 KHz
Frame rate                  : 93.750 fps (512 spf)
Bit depth                   : 24 bits
Compression mode            : Lossless / Lossy / Lossy
Delay relative to video     : 21ms
Stream size                 : 4.09 GiB (15%)
Title                       : Одноголосый закадровый, А.Гаврилов
Language                    : Russian
Default                     : No
Forced                      : No
Audio #3
ID                          : 4
Format                      : DTS
Format/Info                 : Digital Theater Systems
Format profile              : MA / ES Matrix / Core
Mode                        : 16
Format settings, Endianness : Big
Codec ID                    : A_DTS
Duration                    : 1h 41mn
Bit rate mode               : Variable / Constant / Constant
Bit rate                    : 5 759 Kbps / 1 509 Kbps / 1 509 Kbps
Channel(s)                  : 8 channels / 7 channels / 6 channels
Channel positions           : Front: L C R, Side: L R, Back: L R, LFE / Front: L C R, Side: L R, Back: C, LFE / Front: L C R, Side: L R, LFE
Sampling rate               : 48.0 KHz
Frame rate                  : 93.750 fps (512 spf)
Bit depth                   : 24 bits
Compression mode            : Lossless / Lossy / Lossy
Stream size                 : 4.07 GiB (15%)
Language                    : English
Default                     : No
Forced                      : No
Text #1
ID                          : 5
Format                      : UTF-8
Codec ID                    : S_TEXT/UTF8
Codec ID/Info               : UTF-8 Plain Text
Duration                    : 1h 34mn
Bit rate                    : 53 bps
Count of elements           : 801
Stream size                 : 36.9 KiB (0%)
Language                    : Russian
Default                     : No
Forced                      : No
Text #2
ID                          : 6
Format                      : PGS
Muxing mode                 : zlib
Codec ID                    : S_HDMV/PGS
Codec ID/Info               : Picture based subtitle format used on BDs/HD-DVDs
Duration                    : 1h 40mn
Bit rate                    : 7 832 bps
Count of elements           : 2266
Stream size                 : 5.63 MiB (0%)
Language                    : English
Default                     : No
Forced                      : No
Menu
00:00:00.000                : en:Chapter 1
00:02:45.999                : en:Chapter 2
00:05:02.135                : en:Chapter 3
00:09:36.242                : en:Chapter 4
00:12:13.898                : en:Chapter 5
00:15:25.549                : en:Chapter 6
00:18:02.998                : en:Chapter 7
00:22:31.349                : en:Chapter 8
00:28:31.376                : en:Chapter 9
00:32:28.863                : en:Chapter 10
00:36:05.913                : en:Chapter 11
00:39:53.641                : en:Chapter 12
00:42:20.621                : en:Chapter 13
00:46:04.719                : en:Chapter 14
00:50:30.986                : en:Chapter 15
00:53:21.656                : en:Chapter 16
00:57:05.546                : en:Chapter 17
01:01:46.619                : en:Chapter 18
01:05:03.649                : en:Chapter 19
01:10:24.052                : en:Chapter 20
01:14:04.981                : en:Chapter 21
01:17:50.415                : en:Chapter 22
01:20:18.021                : en:Chapter 23
01:24:05.832                : en:Chapter 24
01:26:17.921                : en:Chapter 25
01:28:05.488                : en:Chapter 26
01:32:37.801                : en:Chapter 27
01:35:24.927                : en:Chapter 28
Ссылки на источники вставлять нельзя, по этому вечная слава не признанным героям. Релиз подготовлен с использованием 4 источников. Огромная благодарность причастным. Ссылка на 80 дорог подходящих к релизу для 1-4 части: [url=http://***/forum/viewtopic.php?t=2983969]http://***/forum/viewtopic.php?t=2983969[/url]-
-
Скриншоты
1 часть

--2 часть

--3 часть

--4 часть

Скачать

Скачать торрент!

Как скачивать? · Что такое торрент? · Рейтинг и ограничения

Сайт не распространяет и не хранит электронные версии произведений, а лишь предоставляет доступ к создаваемому пользователями каталогу ссылок на торрент-файлы, которые содержат только списки хеш-сумм

[Профиль] [ЛС]
Показать сообщения:    
Ответить на тему

Текущее время: Сегодня 07:58

Часовой пояс: GMT + 4



Вы не можете начинать темы
Вы не можете отвечать на сообщения
Вы не можете редактировать свои сообщения
Вы не можете удалять свои сообщения
Вы не можете голосовать в опросах
Вы не можете прикреплять файлы к сообщениям
Вы не можете скачивать файлы