Мили / Mili (Хришикеш Мукхерджи / Hrishikesh Mukherjee) [1975 г, Мюзикл, драма, мелодрама, семейный, BDRip] DVO + Hindi

Ответить на тему
 
Автор Сообщение

user ®

Стаж: 12 лет

Сообщений: 15092

Пост Пост: #1 от 25-Дек-2015 14:06

[Цитировать]

Мили / Mili -Страна: Индия
Жанр: Мюзикл, драма, мелодрама, семейный
Год выпуска: 2009
Продолжительность: 02:00:12-Перевод: Профессиональный (двухголосый, закадровый)
Cубтитры: нет
Оригинальная аудиодорожка: да-Режиссер: Хришикеш Мукхерджи / Hrishikesh Mukherjee-В ролях: Джая Бхадури, Амитабх Баччан, Ашок Кумар, Аруна Ирани, Асрани, Шубха Кхоте, Уша Киран, Суреш Чатвал, Раджнатх, Найна Апте, Аарти, Шахана, Чандра, Арабинд, Нандита Арас-Описание: Мили, лишенный матери ребенок, была как родная в каждой квартире в большом жилом доме….. С ее энергией и неуемным интересом к жизни девочка-подросток завоевала любовь жителей, и ее маленькая семья, состоящая из отца, овдовевшей тети и брата, стала любимой среди обитателей дома. Мили была вожаком банды веселых детей.
Терраса здания была достаточной, чтобы играть в игры и репетировать свои театральные экспромты. Но некто купил квартиру в доме и запретил ребятам вход на террасу. Обстановка накалялась.
Новый житель — Шехар — был к тому же единственным сыном пользующегося дурной славой Сета Шанкара Даяла, которого несколько лет назад обвинили в убийстве своей жены, и об этом знала вся страна.-Доп. информация:

Автор рипа: MECHANICAL ENGINEER
За исходник спасибо: [url=http://***/forum/profile.php?mode=viewprofile&u=22722479]jasinpapa[/url]-Качество видео: BDRip [Mili 1975 Hindi Blu-Ray Remux (1080p) AC3.Rs.mkv]
Формат видео: AVI
Видео: 704 x 528; 24 fps; 1527 kbps; 0.17 bit/pixel
Аудио: 48 kHz, AC3 Dolby Digital, 1/0 (C) ch, ~96.00 kbps avg | Двухголосый
Аудио 2: 48 kHz, AC3 Dolby Digital, 1/0 (C) ch, ~96.00 kbps avg | Хинди
Размер файла: 1490.95 Mb (1/3 DVD5)
MediaInfo
Format                                   : AVI
Format/Info                              : Audio Video Interleave
File size                                : 1.46 GiB
Duration                                 : 2h 0mn
Overall bit rate                         : 1 734 Kbps
Director                                 : MECHANICAL ENGINEER
Writing application                      : VirtualDubMod 1.5.10.3 | www.virtualdub-fr.org || (build 2550/release)
Comment                                  : 20.12.2015
Video
ID                                       : 0
Format                                   : MPEG-4 Visual
Format profile                           : Advanced Simple@L5
Format settings, BVOP                    : 1
Format settings, QPel                    : No
Format settings, GMC                     : No warppoints
Format settings, Matrix                  : Custom
Codec ID                                 : XVID
Codec ID/Hint                            : XviD
Duration                                 : 2h 0mn
Bit rate                                 : 1 529 Kbps
Width                                    : 704 pixels
Height                                   : 528 pixels
Display aspect ratio                     : 4:3
Frame rate                               : 24.000 fps
Color space                              : YUV
Chroma subsampling                       : 4:2:0
Bit depth                                : 8 bits
Scan type                                : Progressive
Compression mode                         : Lossy
Bits/(Pixel*Frame)                       : 0.171
Stream size                              : 1.28 GiB (88%)
Writing library                          : XviD 65
Audio #1
ID                                       : 1
Format                                   : AC-3
Format/Info                              : Audio Coding 3
Mode extension                           : CM (complete main)
Codec ID                                 : 2000
Duration                                 : 1h 59mn
Bit rate mode                            : Constant
Bit rate                                 : 96.0 Kbps
Channel(s)                               : 1 channel
Channel positions                        : Front: C
Sampling rate                            : 48.0 KHz
Bit depth                                : 16 bits
Compression mode                         : Lossy
Stream size                              : 82.4 MiB (6%)
Alignment                                : Split accross interleaves
Interleave, duration                     : 42 ms (1.00 video frame)
Interleave, preload duration             : 500 ms
Audio #2
ID                                       : 2
Format                                   : AC-3
Format/Info                              : Audio Coding 3
Mode extension                           : CM (complete main)
Codec ID                                 : 2000
Duration                                 : 1h 59mn
Bit rate mode                            : Constant
Bit rate                                 : 96.0 Kbps
Channel(s)                               : 1 channel
Channel positions                        : Front: C
Sampling rate                            : 48.0 KHz
Bit depth                                : 16 bits
Compression mode                         : Lossy
Stream size                              : 82.4 MiB (6%)
Alignment                                : Split accross interleaves
Interleave, duration                     : 42 ms (1.00 video frame)
Interleave, preload duration             : 500 ms
Скриншоты (превью - увеличение по клику): Comparison
[url=http://***/forum/viewtopic.php?t=2063201]http://***/forum/viewtopic.php?t=2063201[/url] => http://screenshotcomparison.com/comparison/155262
6-канальный звук - дутый, речь хинди идет в пяти каналах.
Семпл для проверки
ПРИЯТНОГО ПРОСМОТРА!
Скачать

Скачать торрент! Мили / Mili (Хришикеш Мукхерджи / Hrishikesh Mukherjee) [1975 г, Мюзикл, драма, мелодрама, семейный, BDRip] DVO + Hindi

Как скачивать? · Что такое торрент? · Рейтинг и ограничения

Сайт не распространяет и не хранит электронные версии произведений, а лишь предоставляет доступ к создаваемому пользователями каталогу ссылок на торрент-файлы, которые содержат только списки хеш-сумм

[Профиль] [ЛС]
Показать сообщения:    
Ответить на тему

Текущее время: Сегодня 18:27

Часовой пояс: GMT + 4



Вы не можете начинать темы
Вы не можете отвечать на сообщения
Вы не можете редактировать свои сообщения
Вы не можете удалять свои сообщения
Вы не можете голосовать в опросах
Вы не можете прикреплять файлы к сообщениям
Вы не можете скачивать файлы