Спасение / Extraction (Стивен С. Миллер / Steven C. Miller) [2015, Канада, триллер, WEB-DLRip] MVO (Paradox & Omskbird records) + Original Eng

Ответить на тему
 
Автор Сообщение

user ®

Стаж: 7 лет 7 месяцев

Сообщений: 20008

Пост Пост: #1 от 25-Дек-2015 14:06

[Цитировать]

Спасение / Extraction
Страна: Канада
Жанр: триллер
Год выпуска: 2015
Продолжительность: 01:21:52-Перевод: Любительский (многоголосый закадровый) Paradox & Omskbird records
Cубтитры: нет
Оригинальная аудиодорожка: английский-Режиссер: Стивен С. Миллер / Steven C. Miller-В ролях: Брюс Уиллис, Келлан Латс,Джина Карано, Д.Б. Суини, Джошуа Микель, Стив Култер, Ден Билзерян, Хезер Йохансен, Роберт Мартин Стейнберг, Саммер Элтис-Описание: Группа террористов похищает бывшего оперативного агента ЦРУ, чтобы использовать его в своих корыстных целях. Не дождавшись помощи от правительства, его сын начинает собственную операцию по спасению отца и возвращению его домой…-Сэмпл: http://sendfile.su/1186428
Качество видео: WEB-DLRip
Формат видео: AVI
Видео: 720x304 (2.37:1), 23.976 fps, XviD build 73 ~1983 kbps avg, 0.38 bit/pixel
Аудио 1: 48 kHz, AC3 Dolby Digital, 2/0 (L,R) ch, ~192 kbps, Русский
Аудио 2: 48 kHz, AC3 Dolby Digital, 2/0 (L,R) ch, ~192 kbps, English


MediaInfo
Формат : AVI
Формат/Информация : Audio Video Interleave
Размер файла : 1,36 Гбайт
Продолжительность : 1 ч. 21 м.
Общий поток : 2383 Кбит/сек
Название фильма : S5ase9ie.2015.L2.WEB-DLRip
Программа кодирования : VirtualDubMod 1.5.10.2 (build 2540/release)
Библиотека кодирования : VirtualDubMod build 2540/release
Видео
Идентификатор : 0
Формат : MPEG-4 Visual
Профиль формата : Advanced Simple@L5
Параметр BVOP формата : 1
Параметр QPel формата : Нет
Параметр GMC формата : Без точки перехода
Параметр матрицы формата : Выборочная
Идентификатор кодека : XVID
Идентификатор кодека/Подсказка : XviD
Продолжительность : 1 ч. 21 м.
Битрейт : 1984 Кбит/сек
Ширина : 720 пикселей
Высота : 304 пикселя
Соотношение сторон : 2,35:1
Частота кадров : 23,976 (23976/1000) кадра/сек
Цветовое пространство : YUV
Субдискретизация насыщенности : 4:2:0
Битовая глубина : 8 бит
Тип развёртки : Прогрессивная
Метод сжатия : С потерями
Бит/(Пиксели*Кадры) : 0.378
Размер потока : 1,13 Гбайт (83%)
Библиотека кодирования : XviD 73
Аудио #1
Идентификатор : 1
Формат : AC-3
Формат/Информация : Audio Coding 3
Расширение режима : CM (complete main)
Параметр Endianness формата : Big
Идентификатор кодека : 2000
Продолжительность : 1 ч. 21 м.
Вид битрейта : Постоянный
Битрейт : 192 Кбит/сек
Каналы : 2 канала
Расположение каналов : Front: L R
Частота : 48,0 КГц
Частота кадров : 31,250 кадров/сек (1536 spf)
Метод сжатия : С потерями
Размер потока : 112 Мбайт (8%)
Выравнивание : Разделение по промежуткам
Продолжительность промежутка : 42 мс. (1,00 видеокадр)
Время предзагрузки промежутка : 500 мс.
Аудио #2
Идентификатор : 2
Формат : AC-3
Формат/Информация : Audio Coding 3
Расширение режима : CM (complete main)
Параметр Endianness формата : Big
Идентификатор кодека : 2000
Продолжительность : 1 ч. 21 м.
Вид битрейта : Постоянный
Битрейт : 192 Кбит/сек
Каналы : 2 канала
Расположение каналов : Front: L R
Частота : 48,0 КГц
Частота кадров : 31,250 кадров/сек (1536 spf)
Метод сжатия : С потерями
Размер потока : 112 Мбайт (8%)
Выравнивание : Разделение по промежуткам
Продолжительность промежутка : 42 мс. (1,00 видеокадр)
Время предзагрузки промежутка : 500 мс.
Скриншот c названием фильма Скриншоты
Скачать

Скачать торрент!

Как скачивать? · Что такое торрент? · Рейтинг и ограничения

Сайт не распространяет и не хранит электронные версии произведений, а лишь предоставляет доступ к создаваемому пользователями каталогу ссылок на торрент-файлы, которые содержат только списки хеш-сумм

[Профиль] [ЛС]
Показать сообщения:    
Ответить на тему

Текущее время: Сегодня 20:40

Часовой пояс: GMT + 4



Вы не можете начинать темы
Вы не можете отвечать на сообщения
Вы не можете редактировать свои сообщения
Вы не можете удалять свои сообщения
Вы не можете голосовать в опросах
Вы не можете прикреплять файлы к сообщениям
Вы не можете скачивать файлы